  0
SECTION
  2
HEADER
  9
$ACADVER
  1
AC1021
  9
$ACADMAINTVER
 70
    50
  9
$DWGCODEPAGE
  3
ANSI_1252
  9
$LASTSAVEDBY
  1
kalpesh.panchal
  9
$INSBASE
 10
0.0
 20
0.0
 30
0.0
  9
$EXTMIN
 10
593.1280022583057
 20
116.741715136133
 30
0.0
  9
$EXTMAX
 10
775.6706148049256
 20
183.1829556724421
 30
0.0
  9
$LIMMIN
 10
-19.49998404267241
 20
-7.273215155782942
  9
$LIMMAX
 10
78.00001595732762
 20
61.97678484421702
  9
$ORTHOMODE
 70
     1
  9
$REGENMODE
 70
     1
  9
$FILLMODE
 70
     1
  9
$QTEXTMODE
 70
     0
  9
$MIRRTEXT
 70
     0
  9
$LTSCALE
 40
1.0
  9
$ATTMODE
 70
     1
  9
$TEXTSIZE
 40
3.5
  9
$TRACEWID
 40
0.5
  9
$TEXTSTYLE
  7
STANDARD
  9
$CLAYER
  8
0
  9
$CELTYPE
  6
ByLayer
  9
$CECOLOR
 62
     4
  9
$CELTSCALE
 40
1.0
  9
$DISPSILH
 70
     0
  9
$DIMSCALE
 40
1.0
  9
$DIMASZ
 40
1.5
  9
$DIMEXO
 40
0.0
  9
$DIMDLI
 40
7.0
  9
$DIMRND
 40
0.0
  9
$DIMDLE
 40
0.0
  9
$DIMEXE
 40
0.25
  9
$DIMTP
 40
0.0
  9
$DIMTM
 40
0.0
  9
$DIMTXT
 40
1.5
  9
$DIMCEN
 40
0.0
  9
$DIMTSZ
 40
0.0
  9
$DIMTOL
 70
     0
  9
$DIMLIM
 70
     0
  9
$DIMTIH
 70
     0
  9
$DIMTOH
 70
     0
  9
$DIMSE1
 70
     0
  9
$DIMSE2
 70
     0
  9
$DIMTAD
 70
     1
  9
$DIMZIN
 70
     9
  9
$DIMBLK
  1

  9
$DIMASO
 70
     1
  9
$DIMSHO
 70
     1
  9
$DIMPOST
  1

  9
$DIMAPOST
  1

  9
$DIMALT
 70
     0
  9
$DIMALTD
 70
     2
  9
$DIMALTF
 40
25.4
  9
$DIMLFAC
 40
1.0
  9
$DIMTOFL
 70
     0
  9
$DIMTVP
 40
0.0
  9
$DIMTIX
 70
     0
  9
$DIMSOXD
 70
     0
  9
$DIMSAH
 70
     0
  9
$DIMBLK1
  1

  9
$DIMBLK2
  1

  9
$DIMSTYLE
  2
DMST_2
  9
$DIMCLRD
 70
     2
  9
$DIMCLRE
 70
     2
  9
$DIMCLRT
 70
     3
  9
$DIMTFAC
 40
1.0
  9
$DIMGAP
 40
0.2
  9
$DIMJUST
 70
     0
  9
$DIMSD1
 70
     0
  9
$DIMSD2
 70
     0
  9
$DIMTOLJ
 70
     1
  9
$DIMTZIN
 70
     0
  9
$DIMALTZ
 70
     0
  9
$DIMALTTZ
 70
     0
  9
$DIMUPT
 70
     0
  9
$DIMDEC
 70
     4
  9
$DIMTDEC
 70
     4
  9
$DIMALTU
 70
     2
  9
$DIMALTTD
 70
     2
  9
$DIMTXSTY
  7
STANDARD
  9
$DIMAUNIT
 70
     0
  9
$DIMADEC
 70
     0
  9
$DIMALTRND
 40
0.0
  9
$DIMAZIN
 70
     0
  9
$DIMDSEP
 70
    46
  9
$DIMATFIT
 70
     3
  9
$DIMFRAC
 70
     0
  9
$DIMLDRBLK
  1

  9
$DIMLUNIT
 70
     2
  9
$DIMLWD
 70
    -2
  9
$DIMLWE
 70
    -2
  9
$DIMTMOVE
 70
     2
  9
$DIMFXL
 40
1.0
  9
$DIMFXLON
 70
     0
  9
$DIMJOGANG
 40
0.7853981633974483
  9
$DIMTFILL
 70
     0
  9
$DIMTFILLCLR
 70
     0
  9
$DIMARCSYM
 70
     0
  9
$DIMLTYPE
  6

  9
$DIMLTEX1
  6

  9
$DIMLTEX2
  6

  9
$LUNITS
 70
     2
  9
$LUPREC
 70
     4
  9
$SKETCHINC
 40
0.1
  9
$FILLETRAD
 40
2.0
  9
$AUNITS
 70
     0
  9
$AUPREC
 70
     0
  9
$MENU
  1
ACAD
  9
$ELEVATION
 40
0.0
  9
$PELEVATION
 40
0.0
  9
$THICKNESS
 40
0.0
  9
$LIMCHECK
 70
     0
  9
$CHAMFERA
 40
0.0
  9
$CHAMFERB
 40
0.0
  9
$CHAMFERC
 40
0.0
  9
$CHAMFERD
 40
0.0
  9
$SKPOLY
 70
     0
  9
$TDCREATE
 40
2458067.658778657
  9
$TDUCREATE
 40
2458067.429611991
  9
$TDUPDATE
 40
2458068.530128495
  9
$TDUUPDATE
 40
2458068.300961829
  9
$TDINDWG
 40
0.1543256250
  9
$TDUSRTIMER
 40
0.1543256250
  9
$USRTIMER
 70
     1
  9
$ANGBASE
 50
0.0
  9
$ANGDIR
 70
     0
  9
$PDMODE
 70
     0
  9
$PDSIZE
 40
0.0
  9
$PLINEWID
 40
0.0
  9
$SPLFRAME
 70
     0
  9
$SPLINETYPE
 70
     6
  9
$SPLINESEGS
 70
     8
  9
$HANDSEED
  5
3DF1
  9
$SURFTAB1
 70
     6
  9
$SURFTAB2
 70
     6
  9
$SURFTYPE
 70
     6
  9
$SURFU
 70
     6
  9
$SURFV
 70
     6
  9
$UCSBASE
  2

  9
$UCSNAME
  2

  9
$UCSORG
 10
0.0
 20
0.0
 30
0.0
  9
$UCSXDIR
 10
1.0
 20
0.0
 30
0.0
  9
$UCSYDIR
 10
0.0
 20
1.0
 30
0.0
  9
$UCSORTHOREF
  2

  9
$UCSORTHOVIEW
 70
     0
  9
$UCSORGTOP
 10
0.0
 20
0.0
 30
0.0
  9
$UCSORGBOTTOM
 10
0.0
 20
0.0
 30
0.0
  9
$UCSORGLEFT
 10
0.0
 20
0.0
 30
0.0
  9
$UCSORGRIGHT
 10
0.0
 20
0.0
 30
0.0
  9
$UCSORGFRONT
 10
0.0
 20
0.0
 30
0.0
  9
$UCSORGBACK
 10
0.0
 20
0.0
 30
0.0
  9
$PUCSBASE
  2

  9
$PUCSNAME
  2

  9
$PUCSORG
 10
0.0
 20
0.0
 30
0.0
  9
$PUCSXDIR
 10
1.0
 20
0.0
 30
0.0
  9
$PUCSYDIR
 10
0.0
 20
1.0
 30
0.0
  9
$PUCSORTHOREF
  2

  9
$PUCSORTHOVIEW
 70
     0
  9
$PUCSORGTOP
 10
0.0
 20
0.0
 30
0.0
  9
$PUCSORGBOTTOM
 10
0.0
 20
0.0
 30
0.0
  9
$PUCSORGLEFT
 10
0.0
 20
0.0
 30
0.0
  9
$PUCSORGRIGHT
 10
0.0
 20
0.0
 30
0.0
  9
$PUCSORGFRONT
 10
0.0
 20
0.0
 30
0.0
  9
$PUCSORGBACK
 10
0.0
 20
0.0
 30
0.0
  9
$USERI1
 70
     0
  9
$USERI2
 70
     0
  9
$USERI3
 70
     0
  9
$USERI4
 70
     0
  9
$USERI5
 70
     0
  9
$USERR1
 40
0.0
  9
$USERR2
 40
0.0
  9
$USERR3
 40
0.0
  9
$USERR4
 40
0.0
  9
$USERR5
 40
0.0
  9
$WORLDVIEW
 70
     1
  9
$SHADEDGE
 70
     3
  9
$SHADEDIF
 70
    70
  9
$TILEMODE
 70
     1
  9
$MAXACTVP
 70
    64
  9
$PINSBASE
 10
0.0
 20
0.0
 30
0.0
  9
$PLIMCHECK
 70
     0
  9
$PEXTMIN
 10
1.000000000000000E+20
 20
1.000000000000000E+20
 30
1.000000000000000E+20
  9
$PEXTMAX
 10
-1.000000000000000E+20
 20
-1.000000000000000E+20
 30
-1.000000000000000E+20
  9
$PLIMMIN
 10
0.0
 20
0.0
  9
$PLIMMAX
 10
12.0
 20
9.0
  9
$UNITMODE
 70
     0
  9
$VISRETAIN
 70
     1
  9
$PLINEGEN
 70
     0
  9
$PSLTSCALE
 70
     1
  9
$TREEDEPTH
 70
  3020
  9
$CMLSTYLE
  2
Standard
  9
$CMLJUST
 70
     0
  9
$CMLSCALE
 40
1.0
  9
$PROXYGRAPHICS
 70
     1
  9
$MEASUREMENT
 70
     0
  9
$CELWEIGHT
370
    -1
  9
$ENDCAPS
280
     0
  9
$JOINSTYLE
280
     0
  9
$LWDISPLAY
290
     0
  9
$INSUNITS
 70
     4
  9
$HYPERLINKBASE
  1

  9
$STYLESHEET
  1
SSG1.ctb
  9
$XEDIT
290
     1
  9
$CEPSNTYPE
380
     0
  9
$PSTYLEMODE
290
     1
  9
$FINGERPRINTGUID
  2
{75BFDBAF-E3CA-42BD-925D-58B45C12ED25}
  9
$VERSIONGUID
  2
{D2AF172E-5EBC-4836-BE90-FAFD2E59E6D4}
  9
$EXTNAMES
290
     1
  9
$PSVPSCALE
 40
0.0
  9
$OLESTARTUP
290
     0
  9
$SORTENTS
280
   127
  9
$INDEXCTL
280
     0
  9
$HIDETEXT
280
     0
  9
$XCLIPFRAME
290
     0
  9
$HALOGAP
280
     0
  9
$OBSCOLOR
 70
   257
  9
$OBSLTYPE
280
     0
  9
$INTERSECTIONDISPLAY
280
     0
  9
$INTERSECTIONCOLOR
 70
   257
  9
$DIMASSOC
280
     1
  9
$PROJECTNAME
  1

  9
$CAMERADISPLAY
290
     0
  9
$LENSLENGTH
 40
50.0
  9
$CAMERAHEIGHT
 40
0.0
  9
$STEPSPERSEC
 40
2.0
  9
$STEPSIZE
 40
6.0
  9
$3DDWFPREC
 40
2.0
  9
$PSOLWIDTH
 40
0.25
  9
$PSOLHEIGHT
 40
4.0
  9
$LOFTANG1
 40
1.570796326794896
  9
$LOFTANG2
 40
1.570796326794896
  9
$LOFTMAG1
 40
0.0
  9
$LOFTMAG2
 40
0.0
  9
$LOFTPARAM
 70
     7
  9
$LOFTNORMALS
280
     1
  9
$LATITUDE
 40
37.795
  9
$LONGITUDE
 40
-122.394
  9
$NORTHDIRECTION
 40
0.0
  9
$TIMEZONE
 70
 -8000
  9
$LIGHTGLYPHDISPLAY
280
     1
  9
$TILEMODELIGHTSYNCH
280
     1
  9
$CMATERIAL
347
11
  9
$SOLIDHIST
280
     1
  9
$SHOWHIST
280
     1
  9
$DWFFRAME
280
     2
  9
$DGNFRAME
280
     0
  9
$REALWORLDSCALE
290
     1
  9
$INTERFERECOLOR
 62
     1
  9
$INTERFEREOBJVS
345
33
  9
$INTERFEREVPVS
346
30
  9
$CSHADOW
280
     0
  9
$SHADOWPLANELOCATION
 40
0.0
  0
ENDSEC
  0
SECTION
  2
CLASSES
  0
CLASS
  1
ACDBDICTIONARYWDFLT
  2
AcDbDictionaryWithDefault
  3
ObjectDBX Classes
 90
        0
 91
        1
280
     0
281
     0
  0
CLASS
  1
MATERIAL
  2
AcDbMaterial
  3
ObjectDBX Classes
 90
     1153
 91
        3
280
     0
281
     0
  0
CLASS
  1
VISUALSTYLE
  2
AcDbVisualStyle
  3
ObjectDBX Classes
 90
     4095
 91
       25
280
     0
281
     0
  0
CLASS
  1
SCALE
  2
AcDbScale
  3
ObjectDBX Classes
 90
     1153
 91
       17
280
     0
281
     0
  0
CLASS
  1
TABLESTYLE
  2
AcDbTableStyle
  3
ObjectDBX Classes
 90
     4095
 91
        1
280
     0
281
     0
  0
CLASS
  1
MLEADERSTYLE
  2
AcDbMLeaderStyle
  3
ACDB_MLEADERSTYLE_CLASS
 90
     4095
 91
        1
280
     0
281
     0
  0
CLASS
  1
ACAD_EVALUATION_GRAPH
  2
AcDbEvalGraph
  3
ObjectDBX Classes
 90
     1153
 91
        0
280
     0
281
     0
  0
CLASS
  1
ACAECUSTOBJ
  2
AcAeEditorObj
  3
AcAeEditorObj
 90
     1024
 91
        0
280
     0
281
     0
  0
CLASS
  1
ACDB_DYNAMICBLOCKPURGEPREVENTER_VERSION
  2
AcDbDynamicBlockPurgePreventer
  3
ObjectDBX Classes
 90
     1153
 91
        0
280
     0
281
     0
  0
CLASS
  1
CELLSTYLEMAP
  2
AcDbCellStyleMap
  3
ObjectDBX Classes
 90
     1152
 91
        2
280
     0
281
     0
  0
CLASS
  1
DICTIONARYVAR
  2
AcDbDictionaryVar
  3
ObjectDBX Classes
 90
        0
 91
        9
280
     0
281
     0
  0
CLASS
  1
SORTENTSTABLE
  2
AcDbSortentsTable
  3
ObjectDBX Classes
 90
        0
 91
        2
280
     0
281
     0
  0
CLASS
  1
BREAKDATA
  2
AcDbBreakData
  3
ObjectDBX Classes
 90
     1024
 91
        3
280
     0
281
     0
  0
CLASS
  1
DIMASSOC
  2
AcDbDimAssoc
  3
"AcDbDimAssoc|Product Desc:     AcDim ARX App For Dimension|Company:          Autodesk, Inc.|WEB Address:      www.autodesk.com"
 90
        0
 91
        2
280
     0
281
     0
  0
ENDSEC
  0
SECTION
  2
TABLES
  0
TABLE
  2
VPORT
  5
8
330
0
100
AcDbSymbolTable
 70
     1
  0
VPORT
  5
84
330
8
100
AcDbSymbolTableRecord
100
AcDbViewportTableRecord
  2
*Active
 70
     0
 10
0.0
 20
0.0
 11
1.0
 21
1.0
 12
688.6460233197579
 22
152.3371508605115
 13
0.0
 23
0.0
 14
1.0
 24
1.0
 15
0.0
 25
0.0
 16
0.0
 26
0.0
 36
1.0
 17
0.0
 27
0.0
 37
0.0
 40
147.5280457019631
 41
2.022727272727272
 42
50.0
 43
0.0
 44
0.0
 50
0.0
 51
0.0
 71
     0
 72
   100
 73
     1
 74
     1
 75
     0
 76
     0
 77
     0
 78
     0
281
     0
 65
     1
110
0.0
120
0.0
130
0.0
111
1.0
121
0.0
131
0.0
112
0.0
122
1.0
132
0.0
 79
     0
146
0.0
348
2F
 60
     3
 61
     5
292
     1
282
     1
141
0.0
142
0.0
 63
   250
421
  3355443
  0
ENDTAB
  0
TABLE
  2
LTYPE
  5
5
330
0
100
AcDbSymbolTable
 70
     9
  0
LTYPE
  5
5A
330
5
100
AcDbSymbolTableRecord
100
AcDbLinetypeTableRecord
  2
ByBlock
 70
     0
  3

 72
    65
 73
     0
 40
0.0
  0
LTYPE
  5
5B
330
5
100
AcDbSymbolTableRecord
100
AcDbLinetypeTableRecord
  2
ByLayer
 70
     0
  3

 72
    65
 73
     0
 40
0.0
  0
LTYPE
  5
5C
330
5
100
AcDbSymbolTableRecord
100
AcDbLinetypeTableRecord
  2
CONTINUOUS
 70
     0
  3
Solid line
 72
    65
 73
     0
 40
0.0
  0
LTYPE
  5
73
330
5
100
AcDbSymbolTableRecord
100
AcDbLinetypeTableRecord
  2
BORDER
 70
     0
  3
__ __ . __ __ .
 72
    65
 73
     6
 40
4.490131578947369
 49
1.282894736842105
 74
     0
 49
-0.6414473684210528
 74
     0
 49
1.282894736842105
 74
     0
 49
-0.6414473684210528
 74
     0
 49
0.0
 74
     0
 49
-0.6414473684210528
 74
     0
  0
LTYPE
  5
74
330
5
100
AcDbSymbolTableRecord
100
AcDbLinetypeTableRecord
  2
CENTER
 70
     0
  3
____ _ ____ _
 72
    65
 73
     4
 40
5.131578947368422
 49
3.207236842105263
 74
     0
 49
-0.6414473684210528
 74
     0
 49
0.6414473684210528
 74
     0
 49
-0.6414473684210528
 74
     0
  0
LTYPE
  5
75
330
5
100
AcDbSymbolTableRecord
100
AcDbLinetypeTableRecord
  2
DASHDOT
 70
     0
  3
__ . __ . __ .
 72
    65
 73
     4
 40
2.565789473684211
 49
1.282894736842105
 74
     0
 49
-0.6414473684210528
 74
     0
 49
0.0
 74
     0
 49
-0.6414473684210528
 74
     0
  0
LTYPE
  5
76
330
5
100
AcDbSymbolTableRecord
100
AcDbLinetypeTableRecord
  2
DASHED
 70
     0
  3
__ __ __ __ __
 72
    65
 73
     2
 40
1.924342105263158
 49
1.282894736842105
 74
     0
 49
-0.6414473684210528
 74
     0
  0
LTYPE
  5
77
330
5
100
AcDbSymbolTableRecord
100
AcDbLinetypeTableRecord
  2
DIVIDE
 70
     0
  3
__ . . __ . . 
 72
    65
 73
     6
 40
3.207236842105263
 49
1.282894736842105
 74
     0
 49
-0.6414473684210528
 74
     0
 49
0.0
 74
     0
 49
-0.6414473684210528
 74
     0
 49
0.0
 74
     0
 49
-0.6414473684210528
 74
     0
  0
LTYPE
  5
78
330
5
100
AcDbSymbolTableRecord
100
AcDbLinetypeTableRecord
  2
DOT
 70
     0
  3
..............
 72
    65
 73
     4
 40
1.282894736842105
 49
0.0
 74
     0
 49
-0.6414473684210528
 74
     0
 49
0.0
 74
     0
 49
-0.6414473684210528
 74
     0
  0
LTYPE
  5
79
330
5
100
AcDbSymbolTableRecord
100
AcDbLinetypeTableRecord
  2
HIDDEN
 70
     0
  3
_ _ _ _ _ _ _
 72
    65
 73
     2
 40
0.9621710526315791
 49
0.6414473684210528
 74
     0
 49
-0.3207236842105264
 74
     0
  0
LTYPE
  5
7A
330
5
100
AcDbSymbolTableRecord
100
AcDbLinetypeTableRecord
  2
PHANTOM
 70
     0
  3
_____ _ _ _____ _ _ 
 72
    65
 73
     6
 40
6.414473684210526
 49
3.207236842105263
 74
     0
 49
-0.6414473684210528
 74
     0
 49
0.6414473684210528
 74
     0
 49
-0.6414473684210528
 74
     0
 49
0.6414473684210528
 74
     0
 49
-0.6414473684210528
 74
     0
  0
ENDTAB
  0
TABLE
  2
LAYER
  5
2
102
{ACAD_XDICTIONARY
360
7B5
102
}
330
0
100
AcDbSymbolTable
 70
     5
  0
LAYER
  5
54
102
{ACAD_XDICTIONARY
360
76F
102
}
330
2
100
AcDbSymbolTableRecord
100
AcDbLayerTableRecord
  2
0
 70
     0
 62
     7
  6
CONTINUOUS
370
    -3
390
F
347
21
  0
LAYER
  5
7B
102
{ACAD_XDICTIONARY
360
771
102
}
330
2
100
AcDbSymbolTableRecord
100
AcDbLayerTableRecord
  2
1
 70
     0
 62
     7
  6
CONTINUOUS
370
    -3
390
F
347
21
  0
LAYER
  5
7C
102
{ACAD_XDICTIONARY
360
773
102
}
330
2
100
AcDbSymbolTableRecord
100
AcDbLayerTableRecord
  2
CONSTRUCTION
 70
     0
 62
     7
  6
CONTINUOUS
370
    -3
390
F
347
21
  0
LAYER
  5
DC1
330
2
100
AcDbSymbolTableRecord
100
AcDbLayerTableRecord
  2
Defpoints
 70
     0
 62
     7
  6
CONTINUOUS
290
     0
370
    -3
390
F
347
21
  0
LAYER
  5
2334
102
{ACAD_XDICTIONARY
360
2335
102
}
330
2
100
AcDbSymbolTableRecord
100
AcDbLayerTableRecord
  2
CENTRE
 70
     0
 62
     7
  6
CENTER
370
    -3
390
F
347
21
  0
ENDTAB
  0
TABLE
  2
STYLE
  5
3
330
0
100
AcDbSymbolTable
 70
     6
  0
STYLE
  5
55
330
3
100
AcDbSymbolTableRecord
100
AcDbTextStyleTableRecord
  2
STANDARD
 70
     0
 40
0.0
 41
1.0
 50
0.0
 71
     0
 42
3.5
  3
isocpeur.ttf
  4

1001
ACAD
1000
ISOCPEUR
1071
       34
  0
STYLE
  5
59
330
3
100
AcDbSymbolTableRecord
100
AcDbTextStyleTableRecord
  2
Annotative
 70
     0
 40
0.0
 41
1.0
 50
0.0
 71
     0
 42
0.2
  3
txt
  4

1001
AcadAnnotative
1000
AnnotativeData
1002
{
1070
     1
1070
     1
1002
}
  0
STYLE
  5
7D
330
3
100
AcDbSymbolTableRecord
100
AcDbTextStyleTableRecord
  2
SIMPLEX
 70
     0
 40
0.0
 41
1.0
 50
0.0
 71
     0
 42
3.5
  3
simplex
  4

  0
STYLE
  5
7E
330
3
100
AcDbSymbolTableRecord
100
AcDbTextStyleTableRecord
  2
COMPLEX
 70
     0
 40
0.0
 41
1.0
 50
0.0
 71
     0
 42
3.5
  3
complex
  4

  0
STYLE
  5
7F
330
3
100
AcDbSymbolTableRecord
100
AcDbTextStyleTableRecord
  2
ITALIC
 70
     0
 40
0.0
 41
1.0
 50
0.0
 71
     0
 42
3.5
  3
italic
  4

  0
STYLE
  5
2336
330
3
100
AcDbSymbolTableRecord
100
AcDbTextStyleTableRecord
  2
SLDTEXTSTYLE0
 70
     0
 40
0.0
 41
0.7
 50
0.0
 71
     0
 42
0.2
  3
TXT
  4

  0
ENDTAB
  0
TABLE
  2
VIEW
  5
6
330
0
100
AcDbSymbolTable
 70
     0
  0
ENDTAB
  0
TABLE
  2
UCS
  5
7
330
0
100
AcDbSymbolTable
 70
     0
  0
ENDTAB
  0
TABLE
  2
APPID
  5
9
330
0
100
AcDbSymbolTable
 70
    12
  0
APPID
  5
56
330
9
100
AcDbSymbolTableRecord
100
AcDbRegAppTableRecord
  2
ACAD
 70
     0
  0
APPID
  5
5D
330
9
100
AcDbSymbolTableRecord
100
AcDbRegAppTableRecord
  2
AcadAnnotative
 70
     0
  0
APPID
  5
575
330
9
100
AcDbSymbolTableRecord
100
AcDbRegAppTableRecord
  2
ACAUTHENVIRON
 70
     0
  0
APPID
  5
579
330
9
100
AcDbSymbolTableRecord
100
AcDbRegAppTableRecord
  2
AcDbDynamicBlockTrueName
 70
     0
  0
APPID
  5
57A
330
9
100
AcDbSymbolTableRecord
100
AcDbRegAppTableRecord
  2
AcDbDynamicBlockGUID
 70
     0
  0
APPID
  5
76D
330
9
100
AcDbSymbolTableRecord
100
AcDbRegAppTableRecord
  2
AcadAnnoPO
 70
     0
  0
APPID
  5
8BC
330
9
100
AcDbSymbolTableRecord
100
AcDbRegAppTableRecord
  2
ACAD_MLEADERVER
 70
     0
  0
APPID
  5
B3E
330
9
100
AcDbSymbolTableRecord
100
AcDbRegAppTableRecord
  2
ACAD_EXEMPT_FROM_CAD_STANDARDS
 70
     0
  0
APPID
  5
2339
330
9
100
AcDbSymbolTableRecord
100
AcDbRegAppTableRecord
  2
ACAD_PSEXT
 70
     0
  0
APPID
  5
233A
330
9
100
AcDbSymbolTableRecord
100
AcDbRegAppTableRecord
  2
ACAD_DSTYLE_DIMJAG
 70
     0
  0
APPID
  5
233B
330
9
100
AcDbSymbolTableRecord
100
AcDbRegAppTableRecord
  2
ACAD_DSTYLE_DIMTALN
 70
     0
  0
APPID
  5
274A
330
9
100
AcDbSymbolTableRecord
100
AcDbRegAppTableRecord
  2
ACAD_DSTYLE_DIMRADIAL_EXTENSION
 70
     0
  0
ENDTAB
  0
TABLE
  2
DIMSTYLE
  5
A
330
0
100
AcDbSymbolTable
 70
     8
100
AcDbDimStyleTable
 71
     3
340
70
340
6F
340
57
  0
DIMSTYLE
105
57
330
A
100
AcDbSymbolTableRecord
100
AcDbDimStyleTableRecord
  2
Standard
 70
     0
340
55
  0
DIMSTYLE
105
58
330
A
100
AcDbSymbolTableRecord
100
AcDbDimStyleTableRecord
  2
Annotative
 70
     0
340
55
1001
AcadAnnotative
1000
AnnotativeData
1002
{
1070
     1
1070
     1
1002
}
  0
DIMSTYLE
105
6F
102
{ACAD_REACTORS
330
2492
330
2493
330
2494
330
2495
330
2499
330
2538
330
2539
330
2540
330
2496
330
24F9
330
24F4
330
24F8
330
24F2
330
24FA
330
24F3
330
24F7
330
249A
102
}
330
A
100
AcDbSymbolTableRecord
100
AcDbDimStyleTableRecord
  2
DMST_1
 70
     0
 41
0.875
 42
0.0
 43
7.0
 44
0.25
 71
     1
 73
     0
 74
     0
 77
     1
 78
     9
140
0.875
141
0.0
146
0.7
176
     2
177
     2
178
     3
279
     2
340
55
  0
DIMSTYLE
105
70
330
A
100
AcDbSymbolTableRecord
100
AcDbDimStyleTableRecord
  2
DMST_2
 70
     0
 41
1.5
 42
0.0
 43
7.0
 44
0.25
 73
     0
 74
     0
 77
     1
 78
     9
140
1.5
141
0.0
147
0.2
176
     2
177
     2
178
     3
279
     2
340
55
1001
ACAD_DSTYLE_DIMJAG
1070
   388
1040
1.5
1001
ACAD_DSTYLE_DIMTALN
1070
   392
1070
     0
  0
DIMSTYLE
105
71
330
A
100
AcDbSymbolTableRecord
100
AcDbDimStyleTableRecord
  2
DMST_3
 70
     0
 41
0.8750000000000001
 42
0.0
 43
7.0
 44
0.25
 73
     0
 74
     0
 77
     1
 78
     9
140
0.8750000000000001
141
0.0
176
     2
177
     2
178
     3
279
     2
340
55
  0
DIMSTYLE
105
72
330
A
100
AcDbSymbolTableRecord
100
AcDbDimStyleTableRecord
  2
DMST_4
 70
     0
 41
0.8750000000000001
 42
0.0
 43
7.0
 44
0.25
 73
     0
 74
     0
 77
     1
 78
     9
140
0.8750000000000001
141
0.0
176
     2
177
     2
178
     3
279
     2
340
55
  0
DIMSTYLE
105
2337
330
A
100
AcDbSymbolTableRecord
100
AcDbDimStyleTableRecord
  2
ISO-25
 70
     0
 41
2.5
 42
0.625
 43
3.75
 44
1.25
 73
     0
 74
     0
 77
     1
 78
     8
140
2.5
141
2.5
143
0.03937007874016
147
0.625
171
     3
172
     1
271
     2
272
     2
274
     3
278
    44
283
     0
284
     8
340
55
  0
DIMSTYLE
105
2338
330
A
100
AcDbSymbolTableRecord
100
AcDbDimStyleTableRecord
  2
SLDDIMSTYLE1
 70
     0
 41
3.183268229166666
 44
0.0
 45
0.000000001
 73
     0
 74
     0
 77
     2
 78
    12
140
3.183268229166666
144
0.5
147
0.7958170572916666
173
     1
271
     2
272
     2
284
    12
340
2336
  0
ENDTAB
  0
TABLE
  2
BLOCK_RECORD
  5
1
330
0
100
AcDbSymbolTable
 70
    42
  0
BLOCK_RECORD
  5
6B
102
{ACAD_XDICTIONARY
360
1AD1
102
}
330
1
100
AcDbSymbolTableRecord
100
AcDbBlockTableRecord
  2
*Model_Space
340
6E
 70
     0
280
     1
281
     0
  0
BLOCK_RECORD
  5
67
330
1
100
AcDbSymbolTableRecord
100
AcDbBlockTableRecord
  2
*Paper_Space
340
6A
 70
     0
280
     1
281
     0
  0
BLOCK_RECORD
  5
85
102
{ACAD_XDICTIONARY
360
19DF
102
}
330
1
100
AcDbSymbolTableRecord
100
AcDbBlockTableRecord
  2
TOP
340
0
 70
     0
280
     1
281
     0
1001
AcDbDynamicBlockGUID
1000
{8A2C3A92-9F3A-4379-8899-13AF67823026}
  0
BLOCK_RECORD
  5
140
330
1
100
AcDbSymbolTableRecord
100
AcDbBlockTableRecord
  2
TOP__1
340
0
102
{BLKREFS
331
145
102
}
 70
     0
280
     1
281
     0
  0
BLOCK_RECORD
  5
143
330
1
100
AcDbSymbolTableRecord
100
AcDbBlockTableRecord
  2
TOP__2
340
0
102
{BLKREFS
331
149
102
}
 70
     0
280
     1
281
     0
  0
BLOCK_RECORD
  5
147
330
1
100
AcDbSymbolTableRecord
100
AcDbBlockTableRecord
  2
TOP__3
340
0
102
{BLKREFS
331
14D
102
}
 70
     0
280
     1
281
     0
  0
BLOCK_RECORD
  5
14B
330
1
100
AcDbSymbolTableRecord
100
AcDbBlockTableRecord
  2
TOP__4
340
0
102
{BLKREFS
331
151
102
}
 70
     0
280
     1
281
     0
  0
BLOCK_RECORD
  5
14F
330
1
100
AcDbSymbolTableRecord
100
AcDbBlockTableRecord
  2
TOP__5
340
0
102
{BLKREFS
331
155
102
}
 70
     0
280
     1
281
     0
  0
BLOCK_RECORD
  5
153
330
1
100
AcDbSymbolTableRecord
100
AcDbBlockTableRecord
  2
TOP__6
340
0
102
{BLKREFS
331
159
102
}
 70
     0
280
     1
281
     0
  0
BLOCK_RECORD
  5
157
330
1
100
AcDbSymbolTableRecord
100
AcDbBlockTableRecord
  2
TOP__7
340
0
102
{BLKREFS
331
15D
102
}
 70
     0
280
     1
281
     0
  0
BLOCK_RECORD
  5
15B
330
1
100
AcDbSymbolTableRecord
100
AcDbBlockTableRecord
  2
TOP__8
340
0
102
{BLKREFS
331
161
102
}
 70
     0
280
     1
281
     0
  0
BLOCK_RECORD
  5
15F
330
1
100
AcDbSymbolTableRecord
100
AcDbBlockTableRecord
  2
TOP__9
340
0
102
{BLKREFS
331
165
102
}
 70
     0
280
     1
281
     0
  0
BLOCK_RECORD
  5
163
330
1
100
AcDbSymbolTableRecord
100
AcDbBlockTableRecord
  2
TOP__10
340
0
102
{BLKREFS
331
767
102
}
 70
     0
280
     1
281
     0
  0
BLOCK_RECORD
  5
345
102
{ACAD_XDICTIONARY
360
F6B
102
}
330
1
100
AcDbSymbolTableRecord
100
AcDbBlockTableRecord
  2
FLASQUE_DE_SORTIE
340
0
102
{BLKREFS
331
524
102
}
 70
     0
280
     1
281
     0
1001
AcDbDynamicBlockGUID
1000
{C5F5F295-EA09-4734-99A2-8C88C01430D0}
  0
BLOCK_RECORD
  5
522
330
1
100
AcDbSymbolTableRecord
100
AcDbBlockTableRecord
  2
TOP__11
340
0
102
{BLKREFS
331
528
102
}
 70
     0
280
     1
281
     0
  0
BLOCK_RECORD
  5
526
330
1
100
AcDbSymbolTableRecord
100
AcDbBlockTableRecord
  2
TOP__12
340
0
102
{BLKREFS
331
BD5
102
}
 70
     0
280
     1
281
     0
  0
BLOCK_RECORD
  5
52A
330
1
100
AcDbSymbolTableRecord
100
AcDbBlockTableRecord
  2
APD
340
0
102
{BLKREFS
331
52F
102
}
 70
     0
280
     1
281
     0
  0
BLOCK_RECORD
  5
52D
330
1
100
AcDbSymbolTableRecord
100
AcDbBlockTableRecord
  2
TOP__13
340
0
102
{BLKREFS
331
BD6
102
}
 70
     0
280
     1
281
     0
  0
BLOCK_RECORD
  5
531
102
{ACAD_XDICTIONARY
360
BD7
102
}
330
1
100
AcDbSymbolTableRecord
100
AcDbBlockTableRecord
  2
TOP__14
340
0
102
{BLKREFS
331
538
102
}
 70
     0
280
     1
281
     0
1001
AcDbDynamicBlockGUID
1000
{2366B687-E30C-431B-932B-773DBC555A4D}
  0
BLOCK_RECORD
  5
536
330
1
100
AcDbSymbolTableRecord
100
AcDbBlockTableRecord
  2
TOP__15
340
0
102
{BLKREFS
331
BC6
102
}
 70
     0
280
     1
281
     0
  0
BLOCK_RECORD
  5
53A
102
{ACAD_XDICTIONARY
360
BC7
102
}
330
1
100
AcDbSymbolTableRecord
100
AcDbBlockTableRecord
  2
TOP__16
340
0
102
{BLKREFS
331
768
102
}
 70
     0
280
     1
281
     0
1001
AcDbDynamicBlockGUID
1000
{D0A9A63E-3410-45FF-828A-58E138A091E9}
  0
BLOCK_RECORD
  5
53E
330
1
100
AcDbSymbolTableRecord
100
AcDbBlockTableRecord
  2
TOP__17
340
0
102
{BLKREFS
331
543
102
}
 70
     0
280
     1
281
     0
  0
BLOCK_RECORD
  5
541
330
1
100
AcDbSymbolTableRecord
100
AcDbBlockTableRecord
  2
TOP__18
340
0
102
{BLKREFS
331
547
102
}
 70
     0
280
     1
281
     0
  0
BLOCK_RECORD
  5
545
330
1
100
AcDbSymbolTableRecord
100
AcDbBlockTableRecord
  2
TOP__19
340
0
102
{BLKREFS
331
769
102
}
 70
     0
280
     1
281
     0
  0
BLOCK_RECORD
  5
549
102
{ACAD_XDICTIONARY
360
196E
102
}
330
1
100
AcDbSymbolTableRecord
100
AcDbBlockTableRecord
  2
ECH1
340
0
 70
     0
280
     1
281
     0
1001
AcDbDynamicBlockGUID
1000
{61536651-B9AE-4CFD-AB97-74B3894DC644}
  0
BLOCK_RECORD
  5
564
102
{ACAD_XDICTIONARY
360
576
102
}
330
1
100
AcDbSymbolTableRecord
100
AcDbBlockTableRecord
  2
TOP__20_TOP_
340
0
102
{BLKREFS
331
56C
102
}
 70
     0
280
     1
281
     0
1001
AcDbDynamicBlockGUID
1000
{680FCD91-7A0F-452A-A2AD-D46C1F540E69}
  0
BLOCK_RECORD
  5
232B
102
{ACAD_XDICTIONARY
360
232C
102
}
330
1
100
AcDbSymbolTableRecord
100
AcDbBlockTableRecord
  2
A$C3BE16BCC
340
0
102
{BLKREFS
331
2543
102
}
 70
     4
280
     1
281
     0
  0
BLOCK_RECORD
  5
2545
330
1
100
AcDbSymbolTableRecord
100
AcDbBlockTableRecord
  2
*D25
340
0
 70
     0
280
     1
281
     0
  0
BLOCK_RECORD
  5
2551
330
1
100
AcDbSymbolTableRecord
100
AcDbBlockTableRecord
  2
*D26
340
0
 70
     0
280
     1
281
     0
  0
BLOCK_RECORD
  5
255D
330
1
100
AcDbSymbolTableRecord
100
AcDbBlockTableRecord
  2
*D27
340
0
 70
     0
280
     1
281
     0
  0
BLOCK_RECORD
  5
2569
330
1
100
AcDbSymbolTableRecord
100
AcDbBlockTableRecord
  2
*D28
340
0
 70
     0
280
     1
281
     0
  0
BLOCK_RECORD
  5
2575
330
1
100
AcDbSymbolTableRecord
100
AcDbBlockTableRecord
  2
*D29
340
0
 70
     0
280
     1
281
     0
  0
BLOCK_RECORD
  5
2582
330
1
100
AcDbSymbolTableRecord
100
AcDbBlockTableRecord
  2
*D30
340
0
 70
     0
280
     1
281
     0
  0
BLOCK_RECORD
  5
258E
330
1
100
AcDbSymbolTableRecord
100
AcDbBlockTableRecord
  2
*D31
340
0
 70
     0
280
     1
281
     0
  0
BLOCK_RECORD
  5
259C
330
1
100
AcDbSymbolTableRecord
100
AcDbBlockTableRecord
  2
*D32
340
0
 70
     0
280
     1
281
     0
  0
BLOCK_RECORD
  5
25AA
330
1
100
AcDbSymbolTableRecord
100
AcDbBlockTableRecord
  2
*D33
340
0
 70
     0
280
     1
281
     0
  0
BLOCK_RECORD
  5
25B2
330
1
100
AcDbSymbolTableRecord
100
AcDbBlockTableRecord
  2
*D34
340
0
 70
     0
280
     1
281
     0
  0
BLOCK_RECORD
  5
25BD
330
1
100
AcDbSymbolTableRecord
100
AcDbBlockTableRecord
  2
*D35
340
0
 70
     0
280
     1
281
     0
  0
BLOCK_RECORD
  5
25C5
330
1
100
AcDbSymbolTableRecord
100
AcDbBlockTableRecord
  2
*D36
340
0
 70
     0
280
     1
281
     0
  0
BLOCK_RECORD
  5
25CD
330
1
100
AcDbSymbolTableRecord
100
AcDbBlockTableRecord
  2
*D37
340
0
 70
     0
280
     1
281
     0
  0
BLOCK_RECORD
  5
25DB
330
1
100
AcDbSymbolTableRecord
100
AcDbBlockTableRecord
  2
*D38
340
0
 70
     0
280
     1
281
     0
  0
BLOCK_RECORD
  5
260F
330
1
100
AcDbSymbolTableRecord
100
AcDbBlockTableRecord
  2
*D39
340
0
 70
     0
280
     1
281
     0
  0
BLOCK_RECORD
  5
2647
330
1
100
AcDbSymbolTableRecord
100
AcDbBlockTableRecord
  2
*D40
340
0
 70
     0
280
     1
281
     0
  0
BLOCK_RECORD
  5
2686
330
1
100
AcDbSymbolTableRecord
100
AcDbBlockTableRecord
  2
*D41
340
0
 70
     0
280
     1
281
     0
  0
ENDTAB
  0
ENDSEC
  0
SECTION
  2
BLOCKS
  0
BLOCK
  5
6C
330
6B
100
AcDbEntity
  8
0
100
AcDbBlockBegin
  2
*Model_Space
 70
     0
 10
0.0
 20
0.0
 30
0.0
  3
*Model_Space
  1

  0
ENDBLK
  5
6D
330
6B
100
AcDbEntity
  8
0
100
AcDbBlockEnd
  0
BLOCK
  5
68
330
67
100
AcDbEntity
 67
     1
  8
0
100
AcDbBlockBegin
  2
*Paper_Space
 70
     0
 10
0.0
 20
0.0
 30
0.0
  3
*Paper_Space
  1

  0
ENDBLK
  5
69
330
67
100
AcDbEntity
 67
     1
  8
0
100
AcDbBlockEnd
  0
BLOCK
  5
86
330
85
100
AcDbEntity
  8
0
100
AcDbBlockBegin
  2
TOP
 70
     0
 10
146.688770916937
 20
148.556120715067
 30
0.0
  3
TOP
  1

  0
LINE
  5
1975
330
85
100
AcDbEntity
  8
1
 62
     4
100
AcDbLine
 10
236.3378180126978
 20
40.61836351988162
 30
0.0
 11
341.3378180126978
 21
40.61836351988163
 31
0.0
  0
LINE
  5
1976
330
85
100
AcDbEntity
  8
1
 62
     4
100
AcDbLine
 10
236.3378180126978
 20
138.6183635198816
 30
0.0
 11
236.3378180126978
 21
40.61836351988163
 31
0.0
  0
LINE
  5
1977
330
85
100
AcDbEntity
  8
1
 62
     3
100
AcDbLine
 10
315.5731476102726
 20
53.61836351988163
 30
0.0
 11
315.5731476102726
 21
48.61836351988163
 31
0.0
  0
LINE
  5
1978
330
85
100
AcDbEntity
  8
1
 62
     3
100
AcDbLine
 10
313.0731476102726
 20
51.11836351988163
 30
0.0
 11
318.0731476102727
 21
51.11836351988163
 31
0.0
  0
LINE
  5
1979
330
85
100
AcDbEntity
  8
1
 62
     3
100
AcDbLine
 10
319.0731476102727
 20
47.61836351988163
 30
0.0
 11
319.0731476102727
 21
54.61836351988163
 31
0.0
  0
LINE
  5
197A
330
85
100
AcDbEntity
  8
1
 62
     3
100
AcDbLine
 10
333.0731476102727
 20
47.61836351988163
 30
0.0
 11
333.0731476102727
 21
54.61836351988163
 31
0.0
  0
LINE
  5
197B
330
85
100
AcDbEntity
  8
1
 62
     3
100
AcDbLine
 10
312.0731476102727
 20
54.61836351988163
 30
0.0
 11
312.0731476102727
 21
47.61836351988163
 31
0.0
  0
LINE
  5
197C
330
85
100
AcDbEntity
  8
1
 62
     3
100
AcDbLine
 10
340.0731476102726
 20
54.61836351988163
 30
0.0
 11
312.0731476102727
 21
54.61836351988163
 31
0.0
  0
LINE
  5
197D
330
85
100
AcDbEntity
  8
1
 62
     3
100
AcDbLine
 10
340.0731476102726
 20
47.61836351988163
 30
0.0
 11
340.0731476102726
 21
54.61836351988163
 31
0.0
  0
LINE
  5
197E
330
85
100
AcDbEntity
  8
1
 62
     3
100
AcDbLine
 10
312.0731476102727
 20
47.61836351988163
 30
0.0
 11
340.0731476102726
 21
47.61836351988163
 31
0.0
  0
LINE
  5
197F
330
85
100
AcDbEntity
  8
1
 62
     3
100
AcDbLine
 10
315.5731476102726
 20
95.22343283171844
 30
0.0
 11
315.5731476102726
 21
90.22343283171752
 31
0.0
  0
LINE
  5
1980
330
85
100
AcDbEntity
  8
1
 62
     3
100
AcDbLine
 10
313.0731476102726
 20
92.72343283171844
 30
0.0
 11
318.0731476102727
 21
92.72343283171844
 31
0.0
  0
LINE
  5
1981
330
85
100
AcDbEntity
  8
1
 62
     3
100
AcDbLine
 10
319.0731476102727
 20
89.22343283171754
 30
0.0
 11
319.0731476102727
 21
96.22343283171844
 31
0.0
  0
LINE
  5
1982
330
85
100
AcDbEntity
  8
1
 62
     3
100
AcDbLine
 10
333.0731476102727
 20
89.22343283171754
 30
0.0
 11
333.0731476102727
 21
96.22343283171844
 31
0.0
  0
LINE
  5
1983
330
85
100
AcDbEntity
  8
1
 62
     3
100
AcDbLine
 10
312.0731476102727
 20
96.22343283171844
 30
0.0
 11
312.0731476102727
 21
89.22343283171754
 31
0.0
  0
LINE
  5
1984
330
85
100
AcDbEntity
  8
1
 62
     3
100
AcDbLine
 10
340.0731476102726
 20
96.22343283171844
 30
0.0
 11
312.0731476102727
 21
96.22343283171844
 31
0.0
  0
LINE
  5
1985
330
85
100
AcDbEntity
  8
1
 62
     3
100
AcDbLine
 10
340.0731476102726
 20
89.22343283171754
 30
0.0
 11
340.0731476102726
 21
96.22343283171844
 31
0.0
  0
LINE
  5
1986
330
85
100
AcDbEntity
  8
1
 62
     3
100
AcDbLine
 10
312.0731476102727
 20
89.22343283171754
 30
0.0
 11
340.0731476102726
 21
89.22343283171754
 31
0.0
  0
LINE
  5
1987
330
85
100
AcDbEntity
  8
1
 62
     3
100
AcDbLine
 10
315.5731476102726
 20
74.61836351988162
 30
0.0
 11
315.5731476102726
 21
69.61836351988162
 31
0.0
  0
LINE
  5
1988
330
85
100
AcDbEntity
  8
1
 62
     3
100
AcDbLine
 10
313.0731476102726
 20
72.11836351988162
 30
0.0
 11
318.0731476102727
 21
72.11836351988162
 31
0.0
  0
LINE
  5
1989
330
85
100
AcDbEntity
  8
1
 62
     3
100
AcDbLine
 10
319.0731476102727
 20
68.61836351988163
 30
0.0
 11
319.0731476102727
 21
75.61836351988162
 31
0.0
  0
LINE
  5
198A
330
85
100
AcDbEntity
  8
1
 62
     3
100
AcDbLine
 10
333.0731476102727
 20
68.61836351988163
 30
0.0
 11
333.0731476102727
 21
75.61836351988162
 31
0.0
  0
LINE
  5
198B
330
85
100
AcDbEntity
  8
1
 62
     3
100
AcDbLine
 10
312.0731476102727
 20
75.61836351988162
 30
0.0
 11
312.0731476102727
 21
68.61836351988163
 31
0.0
  0
LINE
  5
198C
330
85
100
AcDbEntity
  8
1
 62
     3
100
AcDbLine
 10
340.0731476102726
 20
75.61836351988162
 30
0.0
 11
312.0731476102727
 21
75.61836351988162
 31
0.0
  0
LINE
  5
198D
330
85
100
AcDbEntity
  8
1
 62
     3
100
AcDbLine
 10
340.0731476102726
 20
68.61836351988163
 30
0.0
 11
340.0731476102726
 21
75.61836351988162
 31
0.0
  0
LINE
  5
198E
330
85
100
AcDbEntity
  8
1
 62
     3
100
AcDbLine
 10
312.0731476102727
 20
68.61836351988163
 30
0.0
 11
340.0731476102726
 21
68.61836351988163
 31
0.0
  0
LINE
  5
198F
330
85
100
AcDbEntity
  8
1
 62
     3
100
AcDbLine
 10
315.5731476102726
 20
116.6183635198816
 30
0.0
 11
315.5731476102726
 21
111.6183635198816
 31
0.0
  0
LINE
  5
1990
330
85
100
AcDbEntity
  8
1
 62
     3
100
AcDbLine
 10
313.0731476102726
 20
114.1183635198816
 30
0.0
 11
318.0731476102727
 21
114.1183635198816
 31
0.0
  0
LINE
  5
1991
330
85
100
AcDbEntity
  8
1
 62
     3
100
AcDbLine
 10
319.0731476102727
 20
110.6183635198816
 30
0.0
 11
319.0731476102727
 21
117.6183635198816
 31
0.0
  0
LINE
  5
1992
330
85
100
AcDbEntity
  8
1
 62
     3
100
AcDbLine
 10
333.0731476102727
 20
110.6183635198816
 30
0.0
 11
333.0731476102727
 21
117.6183635198816
 31
0.0
  0
LINE
  5
1993
330
85
100
AcDbEntity
  8
1
 62
     3
100
AcDbLine
 10
312.0731476102727
 20
117.6183635198816
 30
0.0
 11
312.0731476102727
 21
110.6183635198816
 31
0.0
  0
LINE
  5
1994
330
85
100
AcDbEntity
  8
1
 62
     3
100
AcDbLine
 10
340.0731476102726
 20
117.6183635198816
 30
0.0
 11
312.0731476102727
 21
117.6183635198816
 31
0.0
  0
LINE
  5
1995
330
85
100
AcDbEntity
  8
1
 62
     3
100
AcDbLine
 10
340.0731476102726
 20
110.6183635198816
 30
0.0
 11
340.0731476102726
 21
117.6183635198816
 31
0.0
  0
LINE
  5
1996
330
85
100
AcDbEntity
  8
1
 62
     3
100
AcDbLine
 10
312.0731476102727
 20
110.6183635198816
 30
0.0
 11
340.0731476102726
 21
110.6183635198816
 31
0.0
  0
LINE
  5
1997
330
85
100
AcDbEntity
  8
1
 62
     7
100
AcDbLine
 10
236.3378180126978
 20
61.61836351988164
 30
0.0
 11
341.3378180126978
 21
61.61836351988164
 31
0.0
  0
LINE
  5
1998
330
85
100
AcDbEntity
  8
1
 62
     7
100
AcDbLine
 10
236.3378180126978
 20
110.6183635198816
 30
0.0
 11
311.3378180126978
 21
110.6183635198816
 31
0.0
  0
LINE
  5
1999
330
85
100
AcDbEntity
  8
1
 62
     7
100
AcDbLine
 10
236.3378180126978
 20
103.6183635198816
 30
0.0
 11
341.3378180126978
 21
103.6183635198816
 31
0.0
  0
LINE
  5
199A
330
85
100
AcDbEntity
  8
1
 62
     7
100
AcDbLine
 10
236.3378180126978
 20
96.61836351988165
 30
0.0
 11
311.3378180126978
 21
96.61836351988165
 31
0.0
  0
LINE
  5
199B
330
85
100
AcDbEntity
  8
1
 62
     7
100
AcDbLine
 10
236.3378180126978
 20
89.61836351988162
 30
0.0
 11
311.3378180126978
 21
89.61836351988162
 31
0.0
  0
LINE
  5
199C
330
85
100
AcDbEntity
  8
1
 62
     7
100
AcDbLine
 10
236.3378180126978
 20
75.61836351988162
 30
0.0
 11
311.3378180126978
 21
75.61836351988162
 31
0.0
  0
LINE
  5
199D
330
85
100
AcDbEntity
  8
1
 62
     7
100
AcDbLine
 10
236.3378180126978
 20
68.61836351988163
 30
0.0
 11
311.3378180126978
 21
68.61836351988163
 31
0.0
  0
LINE
  5
199E
330
85
100
AcDbEntity
  8
1
 62
     7
100
AcDbLine
 10
311.3378180126978
 20
54.61836351988163
 30
0.0
 11
236.3378180126978
 21
54.61836351988163
 31
0.0
  0
LINE
  5
199F
330
85
100
AcDbEntity
  8
1
 62
     7
100
AcDbLine
 10
311.3378180126978
 20
47.61836351988163
 30
0.0
 11
236.3378180126978
 21
47.61836351988163
 31
0.0
  0
LINE
  5
19A0
330
85
100
AcDbEntity
  8
1
 62
     7
100
AcDbLine
 10
251.3378180126978
 20
138.6183635198816
 30
0.0
 11
251.3378180126978
 21
40.61836351988163
 31
0.0
  0
LINE
  5
19A1
330
85
100
AcDbEntity
  8
1
 62
     7
100
AcDbLine
 10
311.3378180126978
 20
138.6183635198816
 30
0.0
 11
311.3378180126978
 21
40.61836351988163
 31
0.0
  0
LINE
  5
19A2
330
85
100
AcDbEntity
  8
1
 62
     7
100
AcDbLine
 10
281.3378180126978
 20
138.6183635198816
 30
0.0
 11
281.3378180126978
 21
40.61836351988163
 31
0.0
  0
LINE
  5
19A3
330
85
100
AcDbEntity
  8
1
 62
     7
100
AcDbLine
 10
236.3378180126978
 20
117.6183635198816
 30
0.0
 11
311.3378180126978
 21
117.6183635198816
 31
0.0
  0
LINE
  5
19A4
330
85
100
AcDbEntity
  8
1
 62
     7
100
AcDbLine
 10
236.3378180126978
 20
124.6183635198816
 30
0.0
 11
341.3378180126978
 21
124.6183635198816
 31
0.0
  0
LINE
  5
19A5
330
85
100
AcDbEntity
  8
1
 62
     4
100
AcDbLine
 10
236.3378180126978
 20
131.6183635198816
 30
0.0
 11
341.3378180126978
 21
131.6183635198816
 31
0.0
  0
LINE
  5
19A6
330
85
100
AcDbEntity
  8
1
 62
     4
100
AcDbLine
 10
236.3378180126978
 20
138.6183635198816
 30
0.0
 11
341.3378180126978
 21
138.6183635198816
 31
0.0
  0
LINE
  5
19A7
330
85
100
AcDbEntity
  8
1
 62
     7
100
AcDbLine
 10
236.3378180126987
 20
82.61836351988163
 30
0.0
 11
341.3378180126978
 21
82.61836351988163
 31
0.0
  0
CIRCLE
  5
19A8
330
85
100
AcDbEntity
  8
1
 62
     3
100
AcDbCircle
 10
315.5731476102726
 20
51.11836351988163
 30
0.0
 40
1.75
  0
CIRCLE
  5
19A9
330
85
100
AcDbEntity
  8
1
 62
     3
100
AcDbCircle
 10
315.5731476102726
 20
92.72343283171844
 30
0.0
 40
1.75
  0
CIRCLE
  5
19AA
330
85
100
AcDbEntity
  8
1
 62
     3
100
AcDbCircle
 10
315.5731476102726
 20
72.11836351988162
 30
0.0
 40
1.75
  0
CIRCLE
  5
19AB
330
85
100
AcDbEntity
  8
1
 62
     3
100
AcDbCircle
 10
315.5731476102726
 20
114.1183635198816
 30
0.0
 40
1.75
  0
TEXT
  5
19AC
330
85
100
AcDbEntity
  8
1
 62
     3
100
AcDbText
 10
321.7856476102726
 20
49.36836351988163
 30
0.0
 40
3.5
  1
0,05
 72
     1
 11
326.0731476102727
 21
51.11836351988163
 31
0.0
100
AcDbText
 73
     2
  0
TEXT
  5
19AD
330
85
100
AcDbEntity
  8
1
 62
     3
100
AcDbText
 10
334.9981476102727
 20
49.36836351988163
 30
0.0
 40
3.5
  1
A
 72
     1
 11
336.5731476102727
 21
51.11836351988163
 31
0.0
100
AcDbText
 73
     2
  0
TEXT
  5
19AE
330
85
100
AcDbEntity
  8
1
 62
     3
100
AcDbText
 10
320.5606476102726
 20
90.97343283171843
 30
0.0
 40
3.5
  1
0,025
 72
     1
 11
326.0731476102727
 21
92.72343283171844
 31
0.0
100
AcDbText
 73
     2
  0
TEXT
  5
19AF
330
85
100
AcDbEntity
  8
1
 62
     3
100
AcDbText
 10
334.9981476102727
 20
90.97343283171843
 30
0.0
 40
3.5
  1
A
 72
     1
 11
336.5731476102727
 21
92.72343283171844
 31
0.0
100
AcDbText
 73
     2
  0
TEXT
  5
19B0
330
85
100
AcDbEntity
  8
1
 62
     3
100
AcDbText
 10
323.3606476102727
 20
70.36836351988163
 30
0.0
 40
3.5
  1
0,1
 72
     1
 11
326.0731476102727
 21
72.11836351988162
 31
0.0
100
AcDbText
 73
     2
  0
TEXT
  5
19B1
330
85
100
AcDbEntity
  8
1
 62
     3
100
AcDbText
 10
334.9981476102727
 20
70.36836351988163
 30
0.0
 40
3.5
  1
A
 72
     1
 11
336.5731476102727
 21
72.11836351988162
 31
0.0
100
AcDbText
 73
     2
  0
TEXT
  5
19B2
330
85
100
AcDbEntity
  8
1
 62
     3
100
AcDbText
 10
323.3606476102727
 20
112.3683635198816
 30
0.0
 40
3.5
  1
0,1
 72
     1
 11
326.0731476102727
 21
114.1183635198816
 31
0.0
100
AcDbText
 73
     2
  0
TEXT
  5
19B3
330
85
100
AcDbEntity
  8
1
 62
     3
100
AcDbText
 10
334.9981476102727
 20
112.3683635198816
 30
0.0
 40
3.5
  1
A
 72
     1
 11
336.5731476102727
 21
114.1183635198816
 31
0.0
100
AcDbText
 73
     2
  0
TEXT
  5
19B4
330
85
100
AcDbEntity
  8
1
 62
     3
100
AcDbText
 10
242.6128180126978
 20
126.8683635198816
 30
0.0
 40
3.5
  1
0
 72
     1
 11
243.8378180126978
 21
128.6183635198816
 31
0.0
100
AcDbText
 73
     2
  0
TEXT
  5
19B5
330
85
100
AcDbEntity
  8
1
 62
     3
100
AcDbText
 10
288.7253180126978
 20
126.8683635198816
 30
0.0
 40
3.5
  1
100,000
 72
     1
 11
296.3378180126978
 21
128.6183635198816
 31
0.0
100
AcDbText
 73
     2
  0
TEXT
  5
19B6
330
85
100
AcDbEntity
  8
1
 62
     3
100
AcDbText
 10
242.9628180126978
 20
119.8683635198816
 30
0.0
 40
3.5
  1
1
 72
     1
 11
243.8378180126978
 21
121.6183635198816
 31
0.0
100
AcDbText
 73
     2
  0
TEXT
  5
19B7
330
85
100
AcDbEntity
  8
1
 62
     3
100
AcDbText
 10
288.7253180126978
 20
119.8683635198816
 30
0.0
 40
3.5
  1
100,000
 72
     1
 11
296.3378180126978
 21
121.6183635198816
 31
0.0
100
AcDbText
 73
     2
  0
TEXT
  5
19B8
330
85
100
AcDbEntity
  8
1
 62
     3
100
AcDbText
 10
258.7253180126978
 20
126.8683635198816
 30
0.0
 40
3.5
  1
100,000
 72
     1
 11
266.3378180126978
 21
128.6183635198816
 31
0.0
100
AcDbText
 73
     2
  0
TEXT
  5
19B9
330
85
100
AcDbEntity
  8
1
 62
     3
100
AcDbText
 10
258.7253180126978
 20
119.8683635198816
 30
0.0
 40
3.5
  1
108,820
 72
     1
 11
266.3378180126978
 21
121.6183635198816
 31
0.0
100
AcDbText
 73
     2
  0
TEXT
  5
19BA
330
85
100
AcDbEntity
  8
1
 62
     3
100
AcDbText
 10
242.6128180126978
 20
112.8683635198816
 30
0.0
 40
3.5
  1
2
 72
     1
 11
243.8378180126978
 21
114.6183635198816
 31
0.0
100
AcDbText
 73
     2
  0
TEXT
  5
19BB
330
85
100
AcDbEntity
  8
1
 62
     3
100
AcDbText
 10
288.7253180126978
 20
112.8683635198816
 30
0.0
 40
3.5
  1
107,638
 72
     1
 11
296.3378180126978
 21
114.6183635198816
 31
0.0
100
AcDbText
 73
     2
  0
TEXT
  5
19BC
330
85
100
AcDbEntity
  8
1
 62
     3
100
AcDbText
 10
259.6003180126978
 20
112.8683635198816
 30
0.0
 40
3.5
  1
95,590
 72
     1
 11
266.3378180126978
 21
114.6183635198816
 31
0.0
100
AcDbText
 73
     2
  0
TEXT
  5
19BD
330
85
100
AcDbEntity
  8
1
 62
     3
100
AcDbText
 10
242.6128180126978
 20
105.8683635198816
 30
0.0
 40
3.5
  1
3
 72
     1
 11
243.8378180126978
 21
107.6183635198816
 31
0.0
100
AcDbText
 73
     2
  0
TEXT
  5
19BE
330
85
100
AcDbEntity
  8
1
 62
     3
100
AcDbText
 10
289.6003180126978
 20
105.8683635198816
 30
0.0
 40
3.5
  1
92,362
 72
     1
 11
296.3378180126978
 21
107.6183635198816
 31
0.0
100
AcDbText
 73
     2
  0
TEXT
  5
19BF
330
85
100
AcDbEntity
  8
1
 62
     3
100
AcDbText
 10
259.6003180126978
 20
105.8683635198816
 30
0.0
 40
3.5
  1
95,590
 72
     1
 11
266.3378180126978
 21
107.6183635198816
 31
0.0
100
AcDbText
 73
     2
  0
TEXT
  5
19C0
330
85
100
AcDbEntity
  8
1
 62
     3
100
AcDbText
 10
242.4378180126978
 20
98.8683635198816
 30
0.0
 40
3.5
  1
4
 72
     1
 11
243.8378180126978
 21
100.6183635198816
 31
0.0
100
AcDbText
 73
     2
  0
TEXT
  5
19C1
330
85
100
AcDbEntity
  8
1
 62
     3
100
AcDbText
 10
288.7253180126978
 20
98.8683635198816
 30
0.0
 40
3.5
  1
107,838
 72
     1
 11
296.3378180126978
 21
100.6183635198816
 31
0.0
100
AcDbText
 73
     2
  0
TEXT
  5
19C2
330
85
100
AcDbEntity
  8
1
 62
     3
100
AcDbText
 10
258.5503180126978
 20
98.8683635198816
 30
0.0
 40
3.5
  1
104,525
 72
     1
 11
266.3378180126978
 21
100.6183635198816
 31
0.0
100
AcDbText
 73
     2
  0
TEXT
  5
19C3
330
85
100
AcDbEntity
  8
1
 62
     3
100
AcDbText
 10
242.6128180126978
 20
91.86836351988166
 30
0.0
 40
3.5
  1
5
 72
     1
 11
243.8378180126978
 21
93.61836351988165
 31
0.0
100
AcDbText
 73
     2
  0
TEXT
  5
19C4
330
85
100
AcDbEntity
  8
1
 62
     3
100
AcDbText
 10
288.7253180126978
 20
91.86836351988166
 30
0.0
 40
3.5
  1
100,000
 72
     1
 11
296.3378180126978
 21
93.61836351988165
 31
0.0
100
AcDbText
 73
     2
  0
TEXT
  5
19C5
330
85
100
AcDbEntity
  8
1
 62
     3
100
AcDbText
 10
259.6003180126978
 20
91.86836351988166
 30
0.0
 40
3.5
  1
90,950
 72
     1
 11
266.3378180126978
 21
93.61836351988165
 31
0.0
100
AcDbText
 73
     2
  0
TEXT
  5
19C6
330
85
100
AcDbEntity
  8
1
 62
     3
100
AcDbText
 10
242.6128180126978
 20
84.86836351988163
 30
0.0
 40
3.5
  1
6
 72
     1
 11
243.8378180126978
 21
86.61836351988162
 31
0.0
100
AcDbText
 73
     2
  0
TEXT
  5
19C7
330
85
100
AcDbEntity
  8
1
 62
     3
100
AcDbText
 10
289.9503180126978
 20
84.86836351988163
 30
0.0
 40
3.5
  1
92,162
 72
     1
 11
296.3378180126978
 21
86.61836351988162
 31
0.0
100
AcDbText
 73
     2
  0
TEXT
  5
19C8
330
85
100
AcDbEntity
  8
1
 62
     3
100
AcDbText
 10
258.5503180126978
 20
84.86836351988163
 30
0.0
 40
3.5
  1
104,525
 72
     1
 11
266.3378180126978
 21
86.61836351988162
 31
0.0
100
AcDbText
 73
     2
  0
TEXT
  5
19C9
330
85
100
AcDbEntity
  8
1
 62
     3
100
AcDbText
 10
241.3878180126978
 20
56.36836351988163
 30
0.0
 40
3.5
  1
20
 72
     1
 11
243.8378180126978
 21
58.11836351988163
 31
0.0
100
AcDbText
 73
     2
  0
TEXT
  5
19CA
330
85
100
AcDbEntity
  8
1
 62
     3
100
AcDbText
 10
288.7253180126978
 20
56.36836351988163
 30
0.0
 40
3.5
  1
109,500
 72
     1
 11
296.3378180126978
 21
58.11836351988163
 31
0.0
100
AcDbText
 73
     2
  0
TEXT
  5
19CB
330
85
100
AcDbEntity
  8
1
 62
     3
100
AcDbText
 10
258.7253180126978
 20
56.36836351988163
 30
0.0
 40
3.5
  1
100,000
 72
     1
 11
266.3378180126978
 21
58.11836351988163
 31
0.0
100
AcDbText
 73
     2
  0
TEXT
  5
19CC
330
85
100
AcDbEntity
  8
1
 62
     3
100
AcDbText
 10
241.7378180126978
 20
49.36836351988163
 30
0.0
 40
3.5
  1
21
 72
     1
 11
243.8378180126978
 21
51.11836351988163
 31
0.0
100
AcDbText
 73
     2
  0
TEXT
  5
19CD
330
85
100
AcDbEntity
  8
1
 62
     3
100
AcDbText
 10
289.6003180126978
 20
49.36836351988163
 30
0.0
 40
3.5
  1
95,250
 72
     1
 11
296.3378180126978
 21
51.11836351988163
 31
0.0
100
AcDbText
 73
     2
  0
TEXT
  5
19CE
330
85
100
AcDbEntity
  8
1
 62
     3
100
AcDbText
 10
259.9503180126979
 20
49.36836351988163
 30
0.0
 40
3.5
  1
91,773
 72
     1
 11
266.3378180126978
 21
51.11836351988163
 31
0.0
100
AcDbText
 73
     2
  0
TEXT
  5
19CF
330
85
100
AcDbEntity
  8
1
 62
     3
100
AcDbText
 10
241.3878180126978
 20
42.36836351988163
 30
0.0
 40
3.5
  1
22
 72
     1
 11
243.8378180126978
 21
44.11836351988163
 31
0.0
100
AcDbText
 73
     2
  0
TEXT
  5
19D0
330
85
100
AcDbEntity
  8
1
 62
     3
100
AcDbText
 10
289.6003180126978
 20
42.36836351988163
 30
0.0
 40
3.5
  1
95,250
 72
     1
 11
296.3378180126978
 21
44.11836351988163
 31
0.0
100
AcDbText
 73
     2
  0
TEXT
  5
19D1
330
85
100
AcDbEntity
  8
1
 62
     3
100
AcDbText
 10
258.7253180126978
 20
42.36836351988163
 30
0.0
 40
3.5
  1
108,227
 72
     1
 11
266.3378180126978
 21
44.11836351988163
 31
0.0
100
AcDbText
 73
     2
  0
TEXT
  5
19D2
330
85
100
AcDbEntity
  8
1
 62
     4
100
AcDbText
 10
240.6878180126978
 20
133.3683635198816
 30
0.0
 40
3.5
  1
No.
 72
     1
 11
243.8378180126978
 21
135.1183635198816
 31
0.0
100
AcDbText
 73
     2
  0
TEXT
  5
19D3
330
85
100
AcDbEntity
  8
1
 62
     4
100
AcDbText
 10
264.7628180126978
 20
133.3683635198816
 30
0.0
 40
3.5
  1
X
 72
     1
 11
266.3378180126978
 21
135.1183635198816
 31
0.0
100
AcDbText
 73
     2
  0
TEXT
  5
19D4
330
85
100
AcDbEntity
  8
1
 62
     4
100
AcDbText
 10
294.7628180126979
 20
133.3683635198816
 30
0.0
 40
3.5
  1
Y
 72
     1
 11
296.3378180126978
 21
135.1183635198816
 31
0.0
100
AcDbText
 73
     2
  0
TEXT
  5
19D5
330
85
100
AcDbEntity
  8
1
 62
     4
100
AcDbText
 10
322.4878180126978
 20
133.3683635198816
 30
0.0
 40
3.5
  1
Tol.
 72
     1
 11
326.3378180126978
 21
135.1183635198816
 31
0.0
100
AcDbText
 73
     2
  0
TEXT
  5
19D6
330
85
100
AcDbEntity
  8
1
 62
     3
100
AcDbText
 10
241.7378180126978
 20
77.86836351988163
 30
0.0
 40
3.5
  1
10
 72
     1
 11
243.8378180126978
 21
79.61836351988162
 31
0.0
100
AcDbText
 73
     2
  0
TEXT
  5
19D7
330
85
100
AcDbEntity
  8
1
 62
     3
100
AcDbText
 10
242.0878180126978
 20
70.86836351988162
 30
0.0
 40
3.5
  1
11
 72
     1
 11
243.8378180126978
 21
72.61836351988162
 31
0.0
100
AcDbText
 73
     2
  0
TEXT
  5
19D8
330
85
100
AcDbEntity
  8
1
 62
     3
100
AcDbText
 10
258.7253180126978
 20
77.86836351988163
 30
0.0
 40
3.5
  1
106,062
 72
     1
 11
266.3378180126978
 21
79.61836351988162
 31
0.0
100
AcDbText
 73
     2
  0
TEXT
  5
19D9
330
85
100
AcDbEntity
  8
1
 62
     3
100
AcDbText
 10
259.6003180126978
 20
70.86836351988162
 30
0.0
 40
3.5
  1
93,938
 72
     1
 11
266.3378180126978
 21
72.61836351988162
 31
0.0
100
AcDbText
 73
     2
  0
TEXT
  5
19DA
330
85
100
AcDbEntity
  8
1
 62
     3
100
AcDbText
 10
288.7253180126978
 20
77.86836351988163
 30
0.0
 40
3.5
  1
103,500
 72
     1
 11
296.3378180126978
 21
79.61836351988162
 31
0.0
100
AcDbText
 73
     2
  0
TEXT
  5
19DB
330
85
100
AcDbEntity
  8
1
 62
     3
100
AcDbText
 10
288.7253180126978
 20
70.86836351988162
 30
0.0
 40
3.5
  1
103,500
 72
     1
 11
296.3378180126978
 21
72.61836351988162
 31
0.0
100
AcDbText
 73
     2
  0
TEXT
  5
19DC
330
85
100
AcDbEntity
  8
1
 62
     3
100
AcDbText
 10
241.7378180126978
 20
63.86836351988162
 30
0.0
 40
3.5
  1
12
 72
     1
 11
243.8378180126978
 21
65.61836351988162
 31
0.0
100
AcDbText
 73
     2
  0
TEXT
  5
19DD
330
85
100
AcDbEntity
  8
1
 62
     3
100
AcDbText
 10
258.7253180126978
 20
63.86836351988162
 30
0.0
 40
3.5
  1
100,000
 72
     1
 11
266.3378180126978
 21
65.61836351988162
 31
0.0
100
AcDbText
 73
     2
  0
TEXT
  5
19DE
330
85
100
AcDbEntity
  8
1
 62
     3
100
AcDbText
 10
289.6003180126978
 20
63.86836351988162
 30
0.0
 40
3.5
  1
93,000
 72
     1
 11
296.3378180126978
 21
65.61836351988162
 31
0.0
100
AcDbText
 73
     2
  0
ENDBLK
  5
13F
330
85
100
AcDbEntity
  8
0
100
AcDbBlockEnd
  0
BLOCK
  5
141
330
140
100
AcDbEntity
  8
0
100
AcDbBlockBegin
  2
TOP__1
 70
     0
 10
525.8756520180968
 20
-2156.164591100193
 30
0.0
  3
TOP__1
  1

  0
ENDBLK
  5
142
330
140
100
AcDbEntity
  8
0
100
AcDbBlockEnd
  0
BLOCK
  5
144
330
143
100
AcDbEntity
  8
0
100
AcDbBlockBegin
  2
TOP__2
 70
     0
 10
423.546735971743
 20
-1999.078314017672
 30
0.0
  3
TOP__2
  1

  0
INSERT
  5
145
330
143
100
AcDbEntity
  8
0
100
AcDbBlockReference
  2
TOP__1
 10
525.8756520180968
 20
-2156.164591100193
 30
0.0
  0
ENDBLK
  5
146
330
143
100
AcDbEntity
  8
0
100
AcDbBlockEnd
  0
BLOCK
  5
148
330
147
100
AcDbEntity
  8
0
100
AcDbBlockBegin
  2
TOP__3
 70
     0
 10
462.132077140745
 20
-1925.364877986957
 30
0.0
  3
TOP__3
  1

  0
INSERT
  5
149
330
147
100
AcDbEntity
  8
0
100
AcDbBlockReference
  2
TOP__2
 10
423.546735971743
 20
-1999.078314017672
 30
0.0
  0
ENDBLK
  5
14A
330
147
100
AcDbEntity
  8
0
100
AcDbBlockEnd
  0
BLOCK
  5
14C
330
14B
100
AcDbEntity
  8
0
100
AcDbBlockBegin
  2
TOP__4
 70
     0
 10
486.6371699238648
 20
-1670.59321356539
 30
0.0
  3
TOP__4
  1

  0
INSERT
  5
14D
330
14B
100
AcDbEntity
  8
0
100
AcDbBlockReference
  2
TOP__3
 10
462.132077140745
 20
-1925.364877986957
 30
0.0
  0
ENDBLK
  5
14E
330
14B
100
AcDbEntity
  8
0
100
AcDbBlockEnd
  0
BLOCK
  5
150
330
14F
100
AcDbEntity
  8
0
100
AcDbBlockBegin
  2
TOP__5
 70
     0
 10
502.4581812616014
 20
-1276.531884801046
 30
0.0
  3
TOP__5
  1

  0
INSERT
  5
151
330
14F
100
AcDbEntity
  8
0
100
AcDbBlockReference
  2
TOP__4
 10
486.6371699238648
 20
-1670.59321356539
 30
0.0
  0
ENDBLK
  5
152
330
14F
100
AcDbEntity
  8
0
100
AcDbBlockEnd
  0
BLOCK
  5
154
330
153
100
AcDbEntity
  8
0
100
AcDbBlockBegin
  2
TOP__6
 70
     0
 10
428.894375442621
 20
-887.7436506680837
 30
0.0
  3
TOP__6
  1

  0
INSERT
  5
155
330
153
100
AcDbEntity
  8
0
100
AcDbBlockReference
  2
TOP__5
 10
502.4581812616014
 20
-1276.531884801046
 30
0.0
  0
ENDBLK
  5
156
330
153
100
AcDbEntity
  8
0
100
AcDbBlockEnd
  0
BLOCK
  5
158
330
157
100
AcDbEntity
  8
0
100
AcDbBlockBegin
  2
TOP__7
 70
     0
 10
257.9260957795693
 20
-434.3737002786686
 30
0.0
  3
TOP__7
  1

  0
INSERT
  5
159
330
157
100
AcDbEntity
  8
0
100
AcDbBlockReference
  2
TOP__6
 10
428.894375442621
 20
-887.7436506680837
 30
0.0
  0
ENDBLK
  5
15A
330
157
100
AcDbEntity
  8
0
100
AcDbBlockEnd
  0
BLOCK
  5
15C
330
15B
100
AcDbEntity
  8
0
100
AcDbBlockBegin
  2
TOP__8
 70
     0
 10
16.46844567659252
 20
28.0371005554411
 30
0.0
  3
TOP__8
  1

  0
INSERT
  5
15D
330
15B
100
AcDbEntity
  8
0
100
AcDbBlockReference
  2
TOP__7
 10
257.9260957795693
 20
-434.3737002786686
 30
0.0
  0
ENDBLK
  5
15E
330
15B
100
AcDbEntity
  8
0
100
AcDbBlockEnd
  0
BLOCK
  5
160
330
15F
100
AcDbEntity
  8
0
100
AcDbBlockBegin
  2
TOP__9
 70
     0
 10
-172.1918861744313
 20
561.0727320609469
 30
0.0
  3
TOP__9
  1

  0
INSERT
  5
161
330
15F
100
AcDbEntity
  8
0
100
AcDbBlockReference
  2
TOP__8
 10
16.46844567659252
 20
28.0371005554411
 30
0.0
  0
ENDBLK
  5
162
330
15F
100
AcDbEntity
  8
0
100
AcDbBlockEnd
  0
BLOCK
  5
164
330
163
100
AcDbEntity
  8
0
100
AcDbBlockBegin
  2
TOP__10
 70
     0
 10
-211.380981890831
 20
561.072732060947
 30
0.0
  3
TOP__10
  1

  0
INSERT
  5
165
330
163
100
AcDbEntity
  8
0
100
AcDbBlockReference
  2
TOP__9
 10
-172.1918861744313
 20
561.0727320609469
 30
0.0
  0
ENDBLK
  5
166
330
163
100
AcDbEntity
  8
0
100
AcDbBlockEnd
  0
BLOCK
  5
346
330
345
100
AcDbEntity
  8
0
100
AcDbBlockBegin
  2
FLASQUE_DE_SORTIE
 70
     0
 10
-66.39197570415411
 20
-826.9337063895537
 30
0.0
  3
FLASQUE_DE_SORTIE
  1

  0
ENDBLK
  5
521
330
345
100
AcDbEntity
  8
0
100
AcDbBlockEnd
  0
BLOCK
  5
523
330
522
100
AcDbEntity
  8
0
100
AcDbBlockBegin
  2
TOP__11
 70
     0
 10
-168.7208917505079
 20
-669.8474293070339
 30
0.0
  3
TOP__11
  1

  0
INSERT
  5
524
330
522
100
AcDbEntity
  8
0
100
AcDbBlockReference
  2
FLASQUE_DE_SORTIE
 10
-66.39197570415411
 20
-826.9337063895537
 30
0.0
  0
ENDBLK
  5
525
330
522
100
AcDbEntity
  8
0
100
AcDbBlockEnd
  0
BLOCK
  5
527
330
526
100
AcDbEntity
  8
0
100
AcDbBlockBegin
  2
TOP__12
 70
     0
 10
-130.1355505815058
 20
-596.1339932763177
 30
0.0
  3
TOP__12
  1

  0
INSERT
  5
528
330
526
100
AcDbEntity
  8
0
100
AcDbBlockReference
  2
TOP__11
 10
-168.7208917505079
 20
-669.8474293070339
 30
0.0
  0
ENDBLK
  5
529
330
526
100
AcDbEntity
  8
0
100
AcDbBlockEnd
  0
BLOCK
  5
52B
330
52A
100
AcDbEntity
  8
0
100
AcDbBlockBegin
  2
APD
 70
     0
 10
-340.5345537634792
 20
-2209.51564547613
 30
0.0
  3
APD
  1

  0
ENDBLK
  5
52C
330
52A
100
AcDbEntity
  8
0
100
AcDbBlockEnd
  0
BLOCK
  5
52E
330
52D
100
AcDbEntity
  8
0
100
AcDbBlockBegin
  2
TOP__13
 70
     0
 10
-130.3224410753032
 20
-474.8332453264056
 30
0.0
  3
TOP__13
  1

  0
INSERT
  5
52F
330
52D
100
AcDbEntity
  8
0
100
AcDbBlockReference
  2
APD
 10
-68.10691075269585
 20
-441.9031290952259
 30
0.0
 41
0.25
 42
0.25
 43
0.25
  0
ENDBLK
  5
530
330
52D
100
AcDbEntity
  8
0
100
AcDbBlockEnd
  0
BLOCK
  5
532
330
531
100
AcDbEntity
  8
0
100
AcDbBlockBegin
  2
TOP__14
 70
     0
 10
-105.6304577983861
 20
-341.3623288547508
 30
0.0
  3
TOP__14
  1

  0
INSERT
  5
BD5
330
531
100
AcDbEntity
  8
0
100
AcDbBlockReference
  2
TOP__12
 10
-130.1355505815058
 20
-596.1339932763177
 30
0.0
  0
INSERT
  5
BD6
330
531
100
AcDbEntity
  8
0
100
AcDbBlockReference
  2
TOP__13
 10
-130.3224410753032
 20
-474.8332453264056
 30
0.0
  0
ENDBLK
  5
535
330
531
100
AcDbEntity
  8
0
100
AcDbBlockEnd
  0
BLOCK
  5
537
330
536
100
AcDbEntity
  8
0
100
AcDbBlockBegin
  2
TOP__15
 70
     0
 10
-89.8094464606493
 20
52.6989999095922
 30
0.0
  3
TOP__15
  1

  0
INSERT
  5
538
330
536
100
AcDbEntity
  8
0
100
AcDbBlockReference
  2
TOP__14
 10
-105.6304577983861
 20
-341.3623288547508
 30
0.0
  0
ENDBLK
  5
539
330
536
100
AcDbEntity
  8
0
100
AcDbBlockEnd
  0
BLOCK
  5
53B
330
53A
100
AcDbEntity
  8
0
100
AcDbBlockBegin
  2
TOP__16
 70
     0
 10
-163.37325227963
 20
441.487234042554
 30
0.0
  3
TOP__16
  1

  0
INSERT
  5
BC6
330
53A
100
AcDbEntity
  8
0
100
AcDbBlockReference
  2
TOP__15
 10
-89.8094464606493
 20
52.6989999095922
 30
0.0
  0
ENDBLK
  5
53D
330
53A
100
AcDbEntity
  8
0
100
AcDbBlockEnd
  0
BLOCK
  5
53F
330
53E
100
AcDbEntity
  8
0
100
AcDbBlockBegin
  2
TOP__17
 70
     0
 10
306.6346634589743
 20
-338.0807469792789
 30
0.0
  3
TOP__17
  1

  0
ENDBLK
  5
540
330
53E
100
AcDbEntity
  8
0
100
AcDbBlockEnd
  0
BLOCK
  5
542
330
541
100
AcDbEntity
  8
0
100
AcDbBlockBegin
  2
TOP__18
 70
     0
 10
133.8445293709808
 20
125.7986194931493
 30
0.0
  3
TOP__18
  1

  0
INSERT
  5
543
330
541
100
AcDbEntity
  8
0
100
AcDbBlockReference
  2
TOP__17
 10
306.6346634589743
 20
-338.0807469792789
 30
0.0
  0
ENDBLK
  5
544
330
541
100
AcDbEntity
  8
0
100
AcDbBlockEnd
  0
BLOCK
  5
546
330
545
100
AcDbEntity
  8
0
100
AcDbBlockBegin
  2
TOP__19
 70
     0
 10
-203.343290919323
 20
560.0316566610001
 30
0.0
  3
TOP__19
  1

  0
INSERT
  5
547
330
545
100
AcDbEntity
  8
0
100
AcDbBlockReference
  2
TOP__18
 10
133.8445293709808
 20
125.7986194931493
 30
0.0
  0
ENDBLK
  5
548
330
545
100
AcDbEntity
  8
0
100
AcDbBlockEnd
  0
BLOCK
  5
54A
330
549
100
AcDbEntity
  8
0
100
AcDbBlockBegin
  2
ECH1
 70
     0
 10
164.8182038342105
 20
33.03786757012568
 30
0.0
  3
ECH1
  1

  0
LINE
  5
1956
330
549
100
AcDbEntity
  8
1
  6
CENTER
 62
     2
 48
0.5
100
AcDbLine
 10
175.7928819076501
 20
44.03786757012596
 30
0.0
 11
164.8182038342105
 21
44.03786757012596
 31
0.0
  0
LINE
  5
1957
330
549
100
AcDbEntity
  8
1
 62
   255
100
AcDbLine
 10
166.455667091949
 20
55.03786757012597
 30
0.0
 11
166.205667091949
 21
54.78786757012596
 31
0.0
  0
LINE
  5
1958
330
549
100
AcDbEntity
  8
1
 62
   255
100
AcDbLine
 10
173.904865460192
 20
55.03786757012592
 30
0.0
 11
166.455667091949
 21
55.03786757012597
 31
0.0
  0
LINE
  5
1959
330
549
100
AcDbEntity
  8
1
 62
   255
100
AcDbLine
 10
173.9056670919491
 20
33.78786757012597
 30
0.0
 11
173.9048654602045
 21
33.78786757012643
 31
0.0
  0
LINE
  5
195A
330
549
100
AcDbEntity
  8
1
 62
   255
100
AcDbLine
 10
175.0056670919478
 20
33.78786757012597
 30
0.0
 11
173.9056670919491
 21
33.78786757012597
 31
0.0
  0
LINE
  5
195B
330
549
100
AcDbEntity
  8
1
 62
   255
100
AcDbLine
 10
173.904865460192
 20
33.03786757012597
 30
0.0
 11
173.9048654602045
 21
33.03786757012568
 31
0.0
  0
LINE
  5
195C
330
549
100
AcDbEntity
  8
1
 62
   255
100
AcDbLine
 10
173.904865460192
 20
33.03786757012597
 30
0.0
 11
173.9048654602045
 21
33.03786757012568
 31
0.0
  0
LINE
  5
195D
330
549
100
AcDbEntity
  8
1
 62
   255
100
AcDbLine
 10
173.904865460192
 20
33.03786757012597
 30
0.0
 11
173.9048654602045
 21
33.03786757012568
 31
0.0
  0
LINE
  5
195E
330
549
100
AcDbEntity
  8
1
 62
   255
100
AcDbLine
 10
166.455667091949
 20
33.03786757012597
 30
0.0
 11
166.205667091949
 21
33.28786757012597
 31
0.0
  0
LINE
  5
195F
330
549
100
AcDbEntity
  8
1
 62
   255
100
AcDbLine
 10
166.455667091949
 20
33.03786757012597
 30
0.0
 11
173.9048654602045
 21
33.03786757012568
 31
0.0
  0
LINE
  5
1960
330
549
100
AcDbEntity
  8
1
 62
   255
100
AcDbLine
 10
173.9048654602045
 20
33.78786757012643
 30
0.0
 11
173.9048654602045
 21
33.03786757012568
 31
0.0
  0
LINE
  5
1961
330
549
100
AcDbEntity
  8
1
 62
   255
100
AcDbLine
 10
173.9048654602045
 20
33.03786757012568
 30
0.0
 11
173.9056670919491
 21
33.03786757012591
 31
0.0
  0
LINE
  5
1962
330
549
100
AcDbEntity
  8
1
 62
   255
100
AcDbLine
 10
173.9048654602045
 20
33.03786757012568
 30
0.0
 11
173.9048654602045
 21
33.78786757012643
 31
0.0
  0
LINE
  5
1963
330
549
100
AcDbEntity
  8
1
 62
   255
100
AcDbLine
 10
173.9048654602045
 20
33.03786757012568
 30
0.0
 11
173.9056670919491
 21
33.03786757012591
 31
0.0
  0
LINE
  5
1964
330
549
100
AcDbEntity
  8
1
 62
   255
100
AcDbLine
 10
173.9048654602045
 20
33.03786757012568
 30
0.0
 11
173.904865460192
 21
33.03786757012597
 31
0.0
  0
LINE
  5
1965
330
549
100
AcDbEntity
  8
1
 62
   255
100
AcDbLine
 10
166.205667091949
 20
39.03786757012597
 30
0.0
 11
166.205667091949
 21
33.28786757012597
 31
0.0
  0
LINE
  5
1966
330
549
100
AcDbEntity
  8
1
 62
   255
100
AcDbLine
 10
173.904865460192
 20
54.53786757012593
 30
0.0
 11
173.9048654602045
 21
54.53786757012593
 31
0.0
  0
LINE
  5
1967
330
549
100
AcDbEntity
  8
1
 62
   255
100
AcDbLine
 10
175.0056670919478
 20
33.78786757012597
 30
0.0
 11
175.0056670919478
 21
54.53786757012593
 31
0.0
  0
LINE
  5
1968
330
549
100
AcDbEntity
  8
1
 62
   255
100
AcDbLine
 10
173.904865460192
 20
55.03786757012592
 30
0.0
 11
173.904865460192
 21
54.53786757012593
 31
0.0
  0
LINE
  5
1969
330
549
100
AcDbEntity
  8
1
 62
   255
100
AcDbLine
 10
166.205667091949
 20
54.78786757012596
 30
0.0
 11
166.205667091949
 21
39.03786757012597
 31
0.0
  0
LINE
  5
196A
330
549
100
AcDbEntity
  8
1
 62
     2
100
AcDbLine
 10
166.455667091949
 20
33.03786757012597
 30
0.0
 11
166.455667091949
 21
55.03786757012597
 31
0.0
  0
LINE
  5
196B
330
549
100
AcDbEntity
  8
1
 62
   255
100
AcDbLine
 10
173.9048654602045
 20
33.78786757012643
 30
0.0
 11
173.9048654602045
 21
54.53786757012593
 31
0.0
  0
LINE
  5
196C
330
549
100
AcDbEntity
  8
1
 62
   255
100
AcDbLine
 10
173.9048654602045
 20
54.53786757012593
 30
0.0
 11
175.0056670919478
 21
54.53786757012593
 31
0.0
  0
TEXT
  5
196D
330
549
100
AcDbEntity
  8
1
 62
     3
100
AcDbText
 10
161.2202158414825
 20
27.31066005899588
 30
0.0
 40
3.5
  1
Scale 1:1
 72
     1
 11
170.1452158414825
 21
29.06066005899588
 31
0.0
100
AcDbText
 73
     2
  0
ENDBLK
  5
563
330
549
100
AcDbEntity
  8
0
100
AcDbBlockEnd
  0
BLOCK
  5
565
330
564
100
AcDbEntity
  8
0
100
AcDbBlockBegin
  2
TOP__20_TOP_
 70
     0
 10
0.0
 20
0.0
 30
0.0
  3
TOP__20_TOP_
  1

  0
ENDBLK
  5
56B
330
564
100
AcDbEntity
  8
0
100
AcDbBlockEnd
  0
BLOCK
  5
232E
330
232B
100
AcDbEntity
  8
0
100
AcDbBlockBegin
  2
A$C3BE16BCC
 70
     0
 10
0.0
 20
0.0
 30
0.0
  3
A$C3BE16BCC
  1

  0
LINE
  5
232F
330
232B
100
AcDbEntity
  8
0
 62
     3
100
AcDbLine
 10
0.0000026706470635
 20
3.32488948560558
 30
0.0
 11
2.396797811161377
 21
3.32488948560558
 31
0.0
  0
LINE
  5
2330
330
232B
100
AcDbEntity
  8
0
 62
     3
100
AcDbLine
 10
1.198400240903992
 20
3.32488948560558
 30
0.0
 11
1.198400240903992
 21
0.0000005704146702
 31
0.0
  0
LINE
  5
2331
330
232B
100
AcDbEntity
  8
0
 62
     3
100
AcDbLine
 10
1.198400240903992
 20
0.0000005704146702
 30
0.0
 11
0.2171861472675118
 21
1.161756203644897
 31
0.0
  0
LINE
  5
2332
330
232B
100
AcDbEntity
  8
0
 62
     3
100
AcDbLine
 10
1.198400240903537
 20
0.0000005704146702
 30
0.0
 11
2.179614334540929
 21
1.161756203644699
 31
0.0
  0
ENDBLK
  5
2333
330
232B
100
AcDbEntity
  8
0
100
AcDbBlockEnd
  0
BLOCK
  5
2546
330
2545
100
AcDbEntity
  8
0
 62
     4
100
AcDbBlockBegin
  2
*D25
 70
     1
 10
0.0
 20
0.0
 30
0.0
  3
*D25
  1

  0
LINE
  5
2BCD
330
2545
100
AcDbEntity
  8
CENTRE
  6
ByBlock
 62
     2
440
 16777216
370
    -2
100
AcDbLine
 10
639.8963560095615
 20
135.7568871661223
 30
0.0
 11
639.8963560095615
 21
116.741715136133
 31
0.0
  0
LINE
  5
2BCE
330
2545
100
AcDbEntity
  8
CENTRE
  6
ByBlock
 62
     2
440
 16777216
370
    -2
100
AcDbLine
 10
667.8758945969714
 20
130.7128740192908
 30
0.0
 11
667.8758945969714
 21
116.741715136133
 31
0.0
  0
LINE
  5
2BCF
330
2545
100
AcDbEntity
  8
CENTRE
  6
ByBlock
 62
     2
440
 16777216
370
    -2
100
AcDbLine
 10
641.3963560095615
 20
116.991715136133
 30
0.0
 11
666.3758945969714
 21
116.991715136133
 31
0.0
  0
MTEXT
  5
2BD0
330
2545
100
AcDbEntity
  8
CENTRE
  6
ByBlock
 62
     3
440
 16777216
100
AcDbMText
 10
654.4777219746613
 20
119.3446612091616
 30
0.0
 40
1.5
 41
0.0
 46
0.0
 71
     2
 72
     1
  1
\A1;300
 73
     1
 44
1.0
  0
SOLID
  5
2BD1
330
2545
100
AcDbEntity
  8
CENTRE
  6
ByBlock
 62
     2
440
 16777216
100
AcDbTrace
 10
641.3963560095615
 20
117.241715136133
 30
0.0
 11
641.3963560095615
 21
116.741715136133
 31
0.0
 12
639.8963560095615
 22
116.991715136133
 32
0.0
 13
639.8963560095615
 23
116.991715136133
 33
0.0
  0
SOLID
  5
2BD2
330
2545
100
AcDbEntity
  8
CENTRE
  6
ByBlock
 62
     2
440
 16777216
100
AcDbTrace
 10
666.3758945969714
 20
117.241715136133
 30
0.0
 11
666.3758945969714
 21
116.741715136133
 31
0.0
 12
667.8758945969714
 22
116.991715136133
 32
0.0
 13
667.8758945969714
 23
116.991715136133
 33
0.0
  0
POINT
  5
2BD3
330
2545
100
AcDbEntity
  8
Defpoints
  6
ByBlock
 62
     0
440
 16777216
100
AcDbPoint
 10
639.8963560095615
 20
135.7568871661223
 30
0.0
  0
POINT
  5
2BD4
330
2545
100
AcDbEntity
  8
Defpoints
  6
ByBlock
 62
     0
440
 16777216
100
AcDbPoint
 10
667.8758945969714
 20
130.7128740192908
 30
0.0
  0
POINT
  5
2BD5
330
2545
100
AcDbEntity
  8
Defpoints
  6
ByBlock
 62
     0
440
 16777216
100
AcDbPoint
 10
667.8758945969714
 20
116.991715136133
 30
0.0
  0
ENDBLK
  5
2547
330
2545
100
AcDbEntity
  8
0
 62
     4
100
AcDbBlockEnd
  0
BLOCK
  5
2552
330
2551
100
AcDbEntity
  8
0
 62
     4
100
AcDbBlockBegin
  2
*D26
 70
     1
 10
0.0
 20
0.0
 30
0.0
  3
*D26
  1

  0
LINE
  5
313A
330
2551
100
AcDbEntity
  8
CENTRE
  6
ByBlock
 62
     2
440
 16777216
370
    -2
100
AcDbLine
 10
667.8758941335459
 20
130.7128740192908
 30
0.0
 11
667.8758941335459
 21
116.741715136133
 31
0.0
  0
LINE
  5
313B
330
2551
100
AcDbEntity
  8
CENTRE
  6
ByBlock
 62
     2
440
 16777216
370
    -2
100
AcDbLine
 10
702.8758935884343
 20
130.7128740192908
 30
0.0
 11
702.8758935884343
 21
116.741715136133
 31
0.0
  0
LINE
  5
313C
330
2551
100
AcDbEntity
  8
CENTRE
  6
ByBlock
 62
     2
440
 16777216
370
    -2
100
AcDbLine
 10
669.3758941335459
 20
116.991715136133
 30
0.0
 11
701.3758935884343
 21
116.991715136133
 31
0.0
  0
SOLID
  5
313D
330
2551
100
AcDbEntity
  8
CENTRE
  6
ByBlock
 62
     2
440
 16777216
100
AcDbTrace
 10
669.3758941335459
 20
117.241715136133
 30
0.0
 11
669.3758941335459
 21
116.741715136133
 31
0.0
 12
667.8758941335459
 22
116.991715136133
 32
0.0
 13
667.8758941335459
 23
116.991715136133
 33
0.0
  0
SOLID
  5
313E
330
2551
100
AcDbEntity
  8
CENTRE
  6
ByBlock
 62
     2
440
 16777216
100
AcDbTrace
 10
701.3758935884343
 20
117.241715136133
 30
0.0
 11
701.3758935884343
 21
116.741715136133
 31
0.0
 12
702.8758935884343
 22
116.991715136133
 32
0.0
 13
702.8758935884343
 23
116.991715136133
 33
0.0
  0
MTEXT
  5
313F
330
2551
100
AcDbEntity
  8
CENTRE
  6
ByBlock
 62
     3
440
 16777216
100
AcDbMText
 10
685.37589386099
 20
119.491715136133
 30
0.0
 40
1.5
 41
0.0
 46
0.0
 71
     2
 72
     1
  1
\A1;35{\H1.200000;±0.15}
 73
     1
 44
1.0
  0
POINT
  5
3140
330
2551
100
AcDbEntity
  8
Defpoints
  6
ByBlock
 62
     0
440
 16777216
100
AcDbPoint
 10
667.8758941335459
 20
130.7128740192908
 30
0.0
  0
POINT
  5
3141
330
2551
100
AcDbEntity
  8
Defpoints
  6
ByBlock
 62
     0
440
 16777216
100
AcDbPoint
 10
702.8758935884343
 20
130.7128740192908
 30
0.0
  0
POINT
  5
3142
330
2551
100
AcDbEntity
  8
Defpoints
  6
ByBlock
 62
     0
440
 16777216
100
AcDbPoint
 10
702.8758935884343
 20
116.991715136133
 30
0.0
  0
ENDBLK
  5
2553
330
2551
100
AcDbEntity
  8
0
 62
     4
100
AcDbBlockEnd
  0
BLOCK
  5
255E
330
255D
100
AcDbEntity
  8
0
 62
     4
100
AcDbBlockBegin
  2
*D27
 70
     1
 10
0.0
 20
0.0
 30
0.0
  3
*D27
  1

  0
LINE
  5
30DA
330
255D
100
AcDbEntity
  8
CENTRE
  6
ByBlock
 62
     2
440
 16777216
370
    -2
100
AcDbLine
 10
704.3758935965622
 20
137.012874053428
 30
0.0
 11
704.3758935965622
 21
123.287193702555
 31
0.0
  0
LINE
  5
30DB
330
255D
100
AcDbEntity
  8
CENTRE
  6
ByBlock
 62
     2
440
 16777216
370
    -2
100
AcDbLine
 10
702.8758935884343
 20
130.7128740192908
 30
0.0
 11
702.8758935884343
 21
123.287193702555
 31
0.0
  0
LINE
  5
30DC
330
255D
100
AcDbEntity
  8
CENTRE
  6
ByBlock
 62
     2
440
 16777216
370
    -2
100
AcDbLine
 10
705.8758935965622
 20
123.537193702555
 30
0.0
 11
707.3758935965622
 21
123.537193702555
 31
0.0
  0
LINE
  5
30DD
330
255D
100
AcDbEntity
  8
CENTRE
  6
ByBlock
 62
     2
440
 16777216
370
    -2
100
AcDbLine
 10
701.3758935884343
 20
123.537193702555
 30
0.0
 11
693.5758935884344
 21
123.537193702555
 31
0.0
  0
LINE
  5
30DE
330
255D
100
AcDbEntity
  8
CENTRE
  6
ByBlock
 62
     2
440
 16777216
370
    -2
100
AcDbLine
 10
704.3758935965622
 20
123.537193702555
 30
0.0
 11
702.8758935884343
 21
123.537193702555
 31
0.0
  0
SOLID
  5
30DF
330
255D
100
AcDbEntity
  8
CENTRE
  6
ByBlock
 62
     2
440
 16777216
100
AcDbTrace
 10
705.8758935965622
 20
123.787193702555
 30
0.0
 11
705.8758935965622
 21
123.287193702555
 31
0.0
 12
704.3758935965622
 22
123.537193702555
 32
0.0
 13
704.3758935965622
 23
123.537193702555
 33
0.0
  0
SOLID
  5
30E0
330
255D
100
AcDbEntity
  8
CENTRE
  6
ByBlock
 62
     2
440
 16777216
100
AcDbTrace
 10
701.3758935884343
 20
123.787193702555
 30
0.0
 11
701.3758935884343
 21
123.287193702555
 31
0.0
 12
702.8758935884343
 22
123.537193702555
 32
0.0
 13
702.8758935884343
 23
123.537193702555
 33
0.0
  0
MTEXT
  5
30E1
330
255D
100
AcDbEntity
  8
CENTRE
  6
ByBlock
 62
     3
440
 16777216
100
AcDbMText
 10
696.7258935884343
 20
125.337193702555
 30
0.0
 40
1.5
 41
0.0
 46
0.0
 71
     2
 72
     1
  1
\A1;1.5{\H1.200000;±0.05}
 73
     1
 44
1.0
  0
POINT
  5
30E2
330
255D
100
AcDbEntity
  8
Defpoints
  6
ByBlock
 62
     0
440
 16777216
100
AcDbPoint
 10
704.3758935965622
 20
137.012874053428
 30
0.0
  0
POINT
  5
30E3
330
255D
100
AcDbEntity
  8
Defpoints
  6
ByBlock
 62
     0
440
 16777216
100
AcDbPoint
 10
702.8758935884343
 20
130.7128740192908
 30
0.0
  0
POINT
  5
30E4
330
255D
100
AcDbEntity
  8
Defpoints
  6
ByBlock
 62
     0
440
 16777216
100
AcDbPoint
 10
702.8758935884343
 20
123.537193702555
 30
0.0
  0
ENDBLK
  5
255F
330
255D
100
AcDbEntity
  8
0
 62
     4
100
AcDbBlockEnd
  0
BLOCK
  5
256A
330
2569
100
AcDbEntity
  8
0
 62
     4
100
AcDbBlockBegin
  2
*D28
 70
     1
 10
0.0
 20
0.0
 30
0.0
  3
*D28
  1

  0
LINE
  5
30E5
330
2569
100
AcDbEntity
  8
CENTRE
  6
ByBlock
 62
     2
440
 16777216
370
    -2
100
AcDbLine
 10
702.8758935884343
 20
130.7128740192908
 30
0.0
 11
702.8758935884343
 21
116.741715136133
 31
0.0
  0
LINE
  5
30E6
330
2569
100
AcDbEntity
  8
CENTRE
  6
ByBlock
 62
     2
440
 16777216
370
    -2
100
AcDbLine
 10
712.87589364262
 20
140.386079152463
 30
0.0
 11
712.87589364262
 21
116.741715136133
 31
0.0
  0
LINE
  5
30E7
330
2569
100
AcDbEntity
  8
CENTRE
  6
ByBlock
 62
     2
440
 16777216
370
    -2
100
AcDbLine
 10
704.3758935884343
 20
116.991715136133
 30
0.0
 11
711.37589364262
 21
116.991715136133
 31
0.0
  0
SOLID
  5
30E8
330
2569
100
AcDbEntity
  8
CENTRE
  6
ByBlock
 62
     2
440
 16777216
100
AcDbTrace
 10
704.3758935884343
 20
117.241715136133
 30
0.0
 11
704.3758935884343
 21
116.741715136133
 31
0.0
 12
702.8758935884343
 22
116.991715136133
 32
0.0
 13
702.8758935884343
 23
116.991715136133
 33
0.0
  0
SOLID
  5
30E9
330
2569
100
AcDbEntity
  8
CENTRE
  6
ByBlock
 62
     2
440
 16777216
100
AcDbTrace
 10
711.37589364262
 20
117.241715136133
 30
0.0
 11
711.37589364262
 21
116.741715136133
 31
0.0
 12
712.87589364262
 22
116.991715136133
 32
0.0
 13
712.87589364262
 23
116.991715136133
 33
0.0
  0
MTEXT
  5
30EA
330
2569
100
AcDbEntity
  8
CENTRE
  6
ByBlock
 62
     3
440
 16777216
100
AcDbMText
 10
707.6187153240298
 20
120.441715136133
 30
0.0
 40
1.5
 41
0.0
 46
0.0
 71
     2
 72
     1
  1
\A1;10{\H1.050000;\S+0.2^ -0.1;}
 73
     1
 44
1.0
  0
POINT
  5
30EB
330
2569
100
AcDbEntity
  8
Defpoints
  6
ByBlock
 62
     0
440
 16777216
100
AcDbPoint
 10
702.8758935884343
 20
130.7128740192908
 30
0.0
  0
POINT
  5
30EC
330
2569
100
AcDbEntity
  8
Defpoints
  6
ByBlock
 62
     0
440
 16777216
100
AcDbPoint
 10
712.87589364262
 20
140.386079152463
 30
0.0
  0
POINT
  5
30ED
330
2569
100
AcDbEntity
  8
Defpoints
  6
ByBlock
 62
     0
440
 16777216
100
AcDbPoint
 10
712.87589364262
 20
116.991715136133
 30
0.0
  0
ENDBLK
  5
256B
330
2569
100
AcDbEntity
  8
0
 62
     4
100
AcDbBlockEnd
  0
BLOCK
  5
2576
330
2575
100
AcDbEntity
  8
0
 62
     4
100
AcDbBlockBegin
  2
*D29
 70
     1
 10
0.0
 20
0.0
 30
0.0
  3
*D29
  1

  0
LINE
  5
30F9
330
2575
100
AcDbEntity
  8
CENTRE
  6
ByBlock
 62
     2
440
 16777216
370
    -2
100
AcDbLine
 10
712.5758936409948
 20
143.2128740870234
 30
0.0
 11
719.3762885021219
 21
143.2128740870234
 31
0.0
  0
LINE
  5
30FA
330
2575
100
AcDbEntity
  8
CENTRE
  6
ByBlock
 62
     2
440
 16777216
370
    -2
100
AcDbLine
 10
712.5758936409948
 20
140.2128740707675
 30
0.0
 11
719.3762885021219
 21
140.2128740707675
 31
0.0
  0
LINE
  5
30FB
330
2575
100
AcDbEntity
  8
CENTRE
  6
ByBlock
 62
     2
440
 16777216
370
    -2
100
AcDbLine
 10
719.1262885021219
 20
138.7128740707675
 30
0.0
 11
719.1262885021219
 21
137.2128740707675
 31
0.0
  0
LINE
  5
30FC
330
2575
100
AcDbEntity
  8
CENTRE
  6
ByBlock
 62
     2
440
 16777216
370
    -2
100
AcDbLine
 10
719.1262885021219
 20
144.7128740870234
 30
0.0
 11
719.1262885021219
 21
155.3841277972909
 31
0.0
  0
LINE
  5
30FD
330
2575
100
AcDbEntity
  8
CENTRE
  6
ByBlock
 62
     2
440
 16777216
370
    -2
100
AcDbLine
 10
719.1262885021219
 20
140.2128740707675
 30
0.0
 11
719.1262885021219
 21
143.2128740870234
 31
0.0
  0
SOLID
  5
30FE
330
2575
100
AcDbEntity
  8
CENTRE
  6
ByBlock
 62
     2
440
 16777216
100
AcDbTrace
 10
718.8762885021219
 20
138.7128740707675
 30
0.0
 11
719.3762885021219
 21
138.7128740707675
 31
0.0
 12
719.1262885021219
 22
140.2128740707675
 32
0.0
 13
719.1262885021219
 23
140.2128740707675
 33
0.0
  0
SOLID
  5
30FF
330
2575
100
AcDbEntity
  8
CENTRE
  6
ByBlock
 62
     2
440
 16777216
100
AcDbTrace
 10
718.8762885021219
 20
144.7128740870234
 30
0.0
 11
719.3762885021219
 21
144.7128740870234
 31
0.0
 12
719.1262885021219
 22
143.2128740870234
 32
0.0
 13
719.1262885021219
 23
143.2128740870234
 33
0.0
  0
MTEXT
  5
3100
330
2575
100
AcDbEntity
  8
CENTRE
  6
ByBlock
 62
     3
440
 16777216
100
AcDbMText
 10
716.376288502122
 20
152.069127797291
 30
0.0
 40
1.5
 41
0.0
 46
0.0
 71
     2
 72
     1
  1
%%c3{\H1.050000;\S-0.006^ -0.009;}
 11
0.0000000000000001
 21
1.0
 31
0.0
 73
     1
 44
1.0
  0
POINT
  5
3101
330
2575
100
AcDbEntity
  8
Defpoints
  6
ByBlock
 62
     0
440
 16777216
100
AcDbPoint
 10
712.5758936409948
 20
143.2128740870234
 30
0.0
  0
POINT
  5
3102
330
2575
100
AcDbEntity
  8
Defpoints
  6
ByBlock
 62
     0
440
 16777216
100
AcDbPoint
 10
712.5758936409948
 20
140.2128740707675
 30
0.0
  0
POINT
  5
3103
330
2575
100
AcDbEntity
  8
Defpoints
  6
ByBlock
 62
     0
440
 16777216
100
AcDbPoint
 10
719.1262885021219
 20
140.2128740707675
 30
0.0
  0
ENDBLK
  5
2577
330
2575
100
AcDbEntity
  8
0
 62
     4
100
AcDbBlockEnd
  0
BLOCK
  5
2583
330
2582
100
AcDbEntity
  8
0
 62
     4
100
AcDbBlockBegin
  2
*D30
 70
     1
 10
0.0
 20
0.0
 30
0.0
  3
*D30
  1

  0
LINE
  5
2BB9
330
2582
100
AcDbEntity
  8
CENTRE
  6
ByBlock
 62
     2
440
 16777216
370
    -2
100
AcDbLine
 10
666.375894810871
 20
140.1239003879117
 30
0.0
 11
666.375894810871
 21
123.287193702555
 31
0.0
  0
LINE
  5
2BBA
330
2582
100
AcDbEntity
  8
CENTRE
  6
ByBlock
 62
     2
440
 16777216
370
    -2
100
AcDbLine
 10
667.8758945969714
 20
130.7128740192908
 30
0.0
 11
667.8758945969714
 21
123.287193702555
 31
0.0
  0
LINE
  5
2BBB
330
2582
100
AcDbEntity
  8
CENTRE
  6
ByBlock
 62
     2
440
 16777216
370
    -2
100
AcDbLine
 10
664.875894810871
 20
123.537193702555
 30
0.0
 11
663.375894810871
 21
123.537193702555
 31
0.0
  0
LINE
  5
2BBC
330
2582
100
AcDbEntity
  8
CENTRE
  6
ByBlock
 62
     2
440
 16777216
370
    -2
100
AcDbLine
 10
669.3758945969713
 20
123.537193702555
 30
0.0
 11
677.1758945969714
 21
123.537193702555
 31
0.0
  0
LINE
  5
2BBD
330
2582
100
AcDbEntity
  8
CENTRE
  6
ByBlock
 62
     2
440
 16777216
370
    -2
100
AcDbLine
 10
666.375894810871
 20
123.537193702555
 30
0.0
 11
667.8758945969714
 21
123.537193702555
 31
0.0
  0
SOLID
  5
2BBE
330
2582
100
AcDbEntity
  8
CENTRE
  6
ByBlock
 62
     2
440
 16777216
100
AcDbTrace
 10
664.875894810871
 20
123.787193702555
 30
0.0
 11
664.875894810871
 21
123.287193702555
 31
0.0
 12
666.375894810871
 22
123.537193702555
 32
0.0
 13
666.375894810871
 23
123.537193702555
 33
0.0
  0
SOLID
  5
2BBF
330
2582
100
AcDbEntity
  8
CENTRE
  6
ByBlock
 62
     2
440
 16777216
100
AcDbTrace
 10
669.3758945969713
 20
123.787193702555
 30
0.0
 11
669.3758945969713
 21
123.287193702555
 31
0.0
 12
667.8758945969714
 22
123.537193702555
 32
0.0
 13
667.8758945969714
 23
123.537193702555
 33
0.0
  0
MTEXT
  5
2BC0
330
2582
100
AcDbEntity
  8
CENTRE
  6
ByBlock
 62
     3
440
 16777216
100
AcDbMText
 10
674.0258945969713
 20
125.337193702555
 30
0.0
 40
1.5
 41
0.0
 46
0.0
 71
     2
 72
     1
  1
\A1;1.5{\H1.200000;±0.05}
 73
     1
 44
1.0
  0
POINT
  5
2BC1
330
2582
100
AcDbEntity
  8
Defpoints
  6
ByBlock
 62
     0
440
 16777216
100
AcDbPoint
 10
666.375894810871
 20
140.1239003879117
 30
0.0
  0
POINT
  5
2BC2
330
2582
100
AcDbEntity
  8
Defpoints
  6
ByBlock
 62
     0
440
 16777216
100
AcDbPoint
 10
667.8758945969714
 20
130.7128740192908
 30
0.0
  0
POINT
  5
2BC3
330
2582
100
AcDbEntity
  8
Defpoints
  6
ByBlock
 62
     0
440
 16777216
100
AcDbPoint
 10
667.8758945969714
 20
123.537193702555
 30
0.0
  0
ENDBLK
  5
2584
330
2582
100
AcDbEntity
  8
0
 62
     4
100
AcDbBlockEnd
  0
BLOCK
  5
258F
330
258E
100
AcDbEntity
  8
0
 62
     4
100
AcDbBlockBegin
  2
*D31
 70
     1
 10
0.0
 20
0.0
 30
0.0
  3
*D31
  1

  0
LINE
  5
3104
330
258E
100
AcDbEntity
  8
CENTRE
  6
ByBlock
 62
     2
440
 16777216
370
    -2
100
AcDbLine
 10
756.3246143849911
 20
149.3213262504839
 30
0.0
 11
758.7383815333348
 21
156.7501376655164
 31
0.0
  0
LINE
  5
3105
330
258E
100
AcDbEntity
  8
CENTRE
  6
ByBlock
 62
     2
440
 16777216
370
    -2
100
AcDbLine
 10
751.380342448201
 20
149.3213262504838
 30
0.0
 11
748.966575299857
 21
156.7501376655162
 31
0.0
  0
ARC
  5
3106
330
258E
100
AcDbEntity
  8
CENTRE
  6
ByBlock
 62
     2
440
 16777216
370
    -2
100
AcDbCircle
 10
753.8524784165962
 20
141.7128740788955
 30
0.0
 40
15.56111461724546
100
AcDbArc
 50
77.52511694176281
 51
102.4748830582391
  0
SOLID
  5
3107
330
258E
100
AcDbEntity
  8
CENTRE
  6
ByBlock
 62
     2
440
 16777216
100
AcDbTrace
 10
757.2795647892657
 20
157.1478143842763
 30
0.0
 11
757.1481549194535
 21
156.6653919074824
 31
0.0
 12
758.6611272847412
 22
156.5123735364427
 32
0.0
 13
758.6611272847412
 23
156.5123735364427
 33
0.0
  0
SOLID
  5
3108
330
258E
100
AcDbEntity
  8
CENTRE
  6
ByBlock
 62
     2
440
 16777216
100
AcDbTrace
 10
750.5568019137385
 20
156.6653919074822
 30
0.0
 11
750.4253920439261
 21
157.1478143842761
 31
0.0
 12
749.0438295484509
 22
156.5123735364425
 32
0.0
 13
749.0438295484509
 23
156.5123735364425
 33
0.0
  0
MTEXT
  5
3109
330
258E
100
AcDbEntity
  8
CENTRE
  6
ByBlock
 62
     3
440
 16777216
100
AcDbMText
 10
756.2052820774895
 20
158.2070262311668
 30
0.0
 40
1.5
 41
0.0
 46
0.0
 71
     5
 72
     1
  1
\A1;36\U+00B0
 11
0.9899789138476183
 21
-0.1412152617003217
 31
0.0
 73
     1
 44
1.0
  0
POINT
  5
310A
330
258E
100
AcDbEntity
  8
Defpoints
  6
ByBlock
 62
     0
440
 16777216
100
AcDbPoint
 10
752.2258990189234
 20
157.1887432820813
 30
0.0
  0
POINT
  5
310B
330
258E
100
AcDbEntity
  8
Defpoints
  6
ByBlock
 62
     0
440
 16777216
100
AcDbPoint
 10
751.380342448201
 20
149.3213262504838
 30
0.0
  0
POINT
  5
310C
330
258E
100
AcDbEntity
  8
Defpoints
  6
ByBlock
 62
     0
440
 16777216
100
AcDbPoint
 10
753.8524784165962
 20
141.7128740788955
 30
0.0
  0
POINT
  5
310D
330
258E
100
AcDbEntity
  8
Defpoints
  6
ByBlock
 62
     0
440
 16777216
100
AcDbPoint
 10
756.3246143849911
 20
149.3213262504839
 30
0.0
  0
POINT
  5
310E
330
258E
100
AcDbEntity
  8
Defpoints
  6
ByBlock
 62
     0
440
 16777216
100
AcDbPoint
 10
753.8524784165962
 20
141.7128740788955
 30
0.0
  0
ENDBLK
  5
2590
330
258E
100
AcDbEntity
  8
0
 62
     4
100
AcDbBlockEnd
  0
BLOCK
  5
259D
330
259C
100
AcDbEntity
  8
0
 62
     4
100
AcDbBlockBegin
  2
*D32
 70
     1
 10
0.0
 20
0.0
 30
0.0
  3
*D32
  1

  0
LINE
  5
310F
330
259C
100
AcDbEntity
  8
CENTRE
  6
ByBlock
 62
     2
440
 16777216
370
    -2
100
AcDbLine
 10
759.5093326967409
 20
136.0560197987508
 30
0.0
 11
766.2657720159357
 21
129.2995804795561
 31
0.0
  0
LINE
  5
3110
330
259C
100
AcDbEntity
  8
CENTRE
  6
ByBlock
 62
     2
440
 16777216
370
    -2
100
AcDbLine
 10
761.5798850687805
 20
139.6423217068557
 30
0.0
 11
770.8093528179285
 21
137.1692932769021
 31
0.0
  0
ARC
  5
3111
330
259C
100
AcDbEntity
  8
CENTRE
  6
ByBlock
 62
     2
440
 16777216
370
    -2
100
AcDbCircle
 10
753.8524784165963
 20
141.7128740788955
 30
0.0
 40
17.30504816190476
100
AcDbArc
 50
319.9679490422877
 51
340.0320509577109
  0
SOLID
  5
3112
330
259C
100
AcDbEntity
  8
CENTRE
  6
ByBlock
 62
     2
440
 16777216
100
AcDbTrace
 10
767.2869620010102
 20
130.4130405966768
 30
0.0
 11
766.9184178274256
 21
130.7509387945365
 31
0.0
 12
766.0889953206389
 22
129.4763571748527
 32
0.0
 13
766.0889953206389
 23
129.4763571748527
 33
0.0
  0
SOLID
  5
3113
330
259C
100
AcDbEntity
  8
CENTRE
  6
ByBlock
 62
     2
440
 16777216
100
AcDbTrace
 10
769.8787625529067
 20
135.8784062669881
 30
0.0
 11
770.3556630629385
 21
135.7281867491769
 31
0.0
 12
770.5678713613561
 22
137.2339980381778
 32
0.0
 13
770.5678713613561
 23
137.2339980381778
 33
0.0
  0
MTEXT
  5
3114
330
259C
100
AcDbEntity
  8
CENTRE
  6
ByBlock
 62
     3
440
 16777216
100
AcDbMText
 10
766.350429863792
 20
132.183952358105
 30
0.0
 40
1.5
 41
0.0
 46
0.0
 71
     5
 72
     1
  1
\A1;30\U+00B0
 11
0.6063118259440876
 21
0.795226992575294
 31
0.0
 73
     1
 44
1.0
  0
POINT
  5
3115
330
259C
100
AcDbEntity
  8
Defpoints
  6
ByBlock
 62
     0
440
 16777216
100
AcDbPoint
 10
769.5361783207747
 20
134.399444705372
 30
0.0
  0
POINT
  5
3116
330
259C
100
AcDbEntity
  8
Defpoints
  6
ByBlock
 62
     0
440
 16777216
100
AcDbPoint
 10
761.5798850687805
 20
139.6423217068557
 30
0.0
  0
POINT
  5
3117
330
259C
100
AcDbEntity
  8
Defpoints
  6
ByBlock
 62
     0
440
 16777216
100
AcDbPoint
 10
753.8524784165963
 20
141.7128740788955
 30
0.0
  0
POINT
  5
3118
330
259C
100
AcDbEntity
  8
Defpoints
  6
ByBlock
 62
     0
440
 16777216
100
AcDbPoint
 10
759.5093326967409
 20
136.0560197987508
 30
0.0
  0
POINT
  5
3119
330
259C
100
AcDbEntity
  8
Defpoints
  6
ByBlock
 62
     0
440
 16777216
100
AcDbPoint
 10
753.8524784165963
 20
141.7128740788955
 30
0.0
  0
ENDBLK
  5
259E
330
259C
100
AcDbEntity
  8
0
 62
     4
100
AcDbBlockEnd
  0
BLOCK
  5
25AB
330
25AA
100
AcDbEntity
  8
0
 62
     4
100
AcDbBlockBegin
  2
*D33
 70
     1
 10
0.0
 20
0.0
 30
0.0
  3
*D33
  1

  0
LINE
  5
3126
330
25AA
100
AcDbEntity
  8
CENTRE
  6
ByBlock
 62
     2
440
 16777216
370
    -2
100
AcDbLine
 10
759.1562803600749
 20
128.2263335294266
 30
0.0
 11
757.3293094547818
 21
132.8719665035655
 31
0.0
  0
MTEXT
  5
3127
330
25AA
100
AcDbEntity
  8
CENTRE
  6
ByBlock
 62
     3
440
 16777216
100
AcDbMText
 10
759.6950379583812
 20
129.8619879092598
 30
0.0
 40
1.5
 41
0.0
 46
0.0
 71
     5
 72
     1
  1
\A1;R8
 11
0.3659822128760588
 21
-0.9306218457882573
 31
0.0
 73
     1
 44
1.0
  0
SOLID
  5
3128
330
25AA
100
AcDbEntity
  8
CENTRE
  6
ByBlock
 62
     2
440
 16777216
100
AcDbTrace
 10
757.5619649162288
 20
132.9634620567845
 30
0.0
 11
757.0966539933347
 21
132.7804709503465
 31
0.0
 12
756.7803361354677
 22
134.2678992722479
 32
0.0
 13
756.7803361354677
 23
134.2678992722479
 33
0.0
  0
POINT
  5
3129
330
25AA
100
AcDbEntity
  8
Defpoints
  6
ByBlock
 62
     0
440
 16777216
100
AcDbPoint
 10
756.7803361354677
 20
134.2678992722479
 30
0.0
  0
POINT
  5
312A
330
25AA
100
AcDbEntity
  8
Defpoints
  6
ByBlock
 62
     0
440
 16777216
100
AcDbPoint
 10
753.8524784165945
 20
141.712874078895
 30
0.0
  0
ENDBLK
  5
25AC
330
25AA
100
AcDbEntity
  8
0
 62
     4
100
AcDbBlockEnd
  0
BLOCK
  5
25B3
330
25B2
100
AcDbEntity
  8
0
 62
     4
100
AcDbBlockBegin
  2
*D34
 70
     1
 10
0.0
 20
0.0
 30
0.0
  3
*D34
  1

  0
LINE
  5
312B
330
25B2
100
AcDbEntity
  8
CENTRE
  6
ByBlock
 62
     2
440
 16777216
370
    -2
100
AcDbLine
 10
740.1579547995165
 20
128.9542384191917
 30
0.0
 11
749.0966507363292
 21
137.2820611255196
 31
0.0
  0
MTEXT
  5
312C
330
25B2
100
AcDbEntity
  8
CENTRE
  6
ByBlock
 62
     3
440
 16777216
100
AcDbMText
 10
741.9140802623822
 20
132.0937683774299
 30
0.0
 40
1.5
 41
0.0
 46
0.0
 71
     5
 72
     1
  1
\A1;∅10{\H1.050000;±0.02}
 11
0.731665793914624
 21
0.6816635284473441
 31
0.0
 73
     1
 44
1.0
  0
SOLID
  5
312D
330
25B2
100
AcDbEntity
  8
CENTRE
  6
ByBlock
 62
     2
440
 16777216
100
AcDbTrace
 10
748.9262348542174
 20
137.4649775739982
 30
0.0
 11
749.267066618441
 21
137.0991446770409
 31
0.0
 12
750.1941494272012
 22
138.3045564181906
 32
0.0
 13
750.1941494272012
 23
138.3045564181906
 33
0.0
  0
POINT
  5
312E
330
25B2
100
AcDbEntity
  8
Defpoints
  6
ByBlock
 62
     0
440
 16777216
100
AcDbPoint
 10
750.1941494272012
 20
138.3045564181906
 30
0.0
  0
POINT
  5
312F
330
25B2
100
AcDbEntity
  8
Defpoints
  6
ByBlock
 62
     0
440
 16777216
100
AcDbPoint
 10
757.5108074059933
 20
145.1211917396003
 30
0.0
  0
ENDBLK
  5
25B4
330
25B2
100
AcDbEntity
  8
0
 62
     4
100
AcDbBlockEnd
  0
BLOCK
  5
25BE
330
25BD
100
AcDbEntity
  8
0
 62
     4
100
AcDbBlockBegin
  2
*D35
 70
     1
 10
0.0
 20
0.0
 30
0.0
  3
*D35
  1

  0
LINE
  5
3130
330
25BD
100
AcDbEntity
  8
CENTRE
  6
ByBlock
 62
     2
440
 16777216
370
    -2
100
AcDbLine
 10
743.834259993226
 20
152.8961185127622
 30
0.0
 11
748.6691750944023
 21
150.605682754131
 31
0.0
  0
MTEXT
  5
3131
330
25BD
100
AcDbEntity
  8
CENTRE
  6
ByBlock
 62
     3
440
 16777216
100
AcDbMText
 10
746.0448564239284
 20
153.0660844521882
 30
0.0
 40
1.5
 41
0.0
 46
0.0
 71
     5
 72
     1
  1
\A1;R1.5
 11
0.9037224488180203
 21
-0.4281188333890026
 31
0.0
 73
     1
 44
1.0
  0
SOLID
  5
3132
330
25BD
100
AcDbEntity
  8
CENTRE
  6
ByBlock
 62
     2
440
 16777216
100
AcDbTrace
 10
748.7762048027495
 20
150.8316133663355
 30
0.0
 11
748.5621453860551
 21
150.3797521419265
 31
0.0
 12
750.0247587676293
 22
149.9635045040476
 32
0.0
 13
750.0247587676293
 23
149.9635045040476
 33
0.0
  0
POINT
  5
3133
330
25BD
100
AcDbEntity
  8
Defpoints
  6
ByBlock
 62
     0
440
 16777216
100
AcDbPoint
 10
750.0247587676293
 20
149.9635045040476
 30
0.0
  0
POINT
  5
3134
330
25BD
100
AcDbEntity
  8
Defpoints
  6
ByBlock
 62
     0
440
 16777216
100
AcDbPoint
 10
751.3803424482023
 20
149.3213262504841
 30
0.0
  0
ENDBLK
  5
25BF
330
25BD
100
AcDbEntity
  8
0
 62
     4
100
AcDbBlockEnd
  0
BLOCK
  5
25C6
330
25C5
100
AcDbEntity
  8
0
 62
     4
100
AcDbBlockBegin
  2
*D36
 70
     1
 10
0.0
 20
0.0
 30
0.0
  3
*D36
  1

  0
LINE
  5
3135
330
25C5
100
AcDbEntity
  8
CENTRE
  6
ByBlock
 62
     2
440
 16777216
370
    -2
100
AcDbLine
 10
767.7649256328391
 20
150.3483535986004
 30
0.0
 11
762.9555372838868
 21
142.0235148994219
 31
0.0
  0
MTEXT
  5
3136
330
25C5
100
AcDbEntity
  8
CENTRE
  6
ByBlock
 62
     3
440
 16777216
100
AcDbMText
 10
765.586867296809
 20
148.7771878260448
 30
0.0
 40
1.5
 41
0.0
 46
0.0
 71
     5
 72
     1
  1
\A1;R1.25
 11
0.5002371678977072
 21
0.8658884315278044
 31
0.0
 73
     1
 44
1.0
  0
SOLID
  5
3137
330
25C5
100
AcDbEntity
  8
CENTRE
  6
ByBlock
 62
     2
440
 16777216
100
AcDbTrace
 10
762.7390651760048
 20
142.1485741913963
 30
0.0
 11
763.1720093917687
 21
141.8984556074475
 31
0.0
 12
762.2051815320402
 22
140.7246822521301
 32
0.0
 13
762.2051815320402
 23
140.7246822521301
 33
0.0
  0
POINT
  5
3138
330
25C5
100
AcDbEntity
  8
Defpoints
  6
ByBlock
 62
     0
440
 16777216
100
AcDbPoint
 10
762.2051815320402
 20
140.7246822521301
 30
0.0
  0
POINT
  5
3139
330
25C5
100
AcDbEntity
  8
Defpoints
  6
ByBlock
 62
     0
440
 16777216
100
AcDbPoint
 10
761.57988506878
 20
139.6423217068557
 30
0.0
  0
ENDBLK
  5
25C7
330
25C5
100
AcDbEntity
  8
0
 62
     4
100
AcDbBlockEnd
  0
BLOCK
  5
25CE
330
25CD
100
AcDbEntity
  8
0
 62
     4
100
AcDbBlockBegin
  2
*D37
 70
     1
 10
0.0
 20
0.0
 30
0.0
  3
*D37
  1

  0
LINE
  5
2A6D
330
25CD
100
AcDbEntity
  8
CENTRE
  6
ByBlock
 62
     2
440
 16777216
370
    -2
100
AcDbLine
 10
611.1225942297148
 20
153.7128741439187
 30
0.0
 11
611.1225942297148
 21
157.8361101861909
 31
0.0
  0
LINE
  5
2A6E
330
25CD
100
AcDbEntity
  8
CENTRE
  6
ByBlock
 62
     2
440
 16777216
370
    -2
100
AcDbLine
 10
603.7613782576592
 20
137.4628740558663
 30
0.0
 11
597.1594621695823
 21
133.651256025248
 31
0.0
  0
ARC
  5
2A6F
330
25CD
100
AcDbEntity
  8
CENTRE
  6
ByBlock
 62
     2
440
 16777216
370
    -2
100
AcDbCircle
 10
611.1225942297148
 20
141.7128740788955
 30
0.0
 40
15.87323610729542
100
AcDbArc
 50
95.41639266701176
 51
204.5836073329868
  0
SOLID
  5
2A70
330
25CD
100
AcDbEntity
  8
CENTRE
  6
ByBlock
 62
     2
440
 16777216
100
AcDbTrace
 10
609.6124572045753
 20
157.7649569510563
 30
0.0
 11
609.6360818767887
 21
157.2655153880453
 31
0.0
 12
611.1225942297148
 22
157.5861101861908
 32
0.0
 13
611.1225942297148
 23
157.5861101861908
 33
0.0
  0
SOLID
  5
2A71
330
25CD
100
AcDbEntity
  8
CENTRE
  6
ByBlock
 62
     2
440
 16777216
100
AcDbTrace
 10
596.9103555835805
 20
135.2239108849943
 30
0.0
 11
596.4660141662005
 21
134.9946496697816
 31
0.0
 12
597.3759685205284
 22
133.776256025248
 32
0.0
 13
597.3759685205284
 23
133.776256025248
 33
0.0
  0
MTEXT
  5
2A72
330
25CD
100
AcDbEntity
  8
CENTRE
  6
ByBlock
 62
     3
440
 16777216
100
AcDbMText
 10
596.0154042587431
 20
149.5603401447676
 30
0.0
 40
1.5
 41
0.0
 46
0.0
 71
     5
 72
     1
  1
\A1;3x 120\U+00B0
 11
0.4609701763835766
 21
0.8874156278119595
 31
0.0
 73
     1
 44
1.0
  0
POINT
  5
2A73
330
25CD
100
AcDbEntity
  8
Defpoints
  6
ByBlock
 62
     0
440
 16777216
100
AcDbPoint
 10
600.9194747343165
 20
153.8724783932047
 30
0.0
  0
POINT
  5
2A74
330
25CD
100
AcDbEntity
  8
Defpoints
  6
ByBlock
 62
     0
440
 16777216
100
AcDbPoint
 10
611.1225942297148
 20
141.7128740788955
 30
0.0
  0
POINT
  5
2A75
330
25CD
100
AcDbEntity
  8
Defpoints
  6
ByBlock
 62
     0
440
 16777216
100
AcDbPoint
 10
611.1225942297148
 20
153.7128741439187
 30
0.0
  0
POINT
  5
2A76
330
25CD
100
AcDbEntity
  8
Defpoints
  6
ByBlock
 62
     0
440
 16777216
100
AcDbPoint
 10
611.1225942297148
 20
129.7128740138722
 30
0.0
  0
POINT
  5
2A77
330
25CD
100
AcDbEntity
  8
Defpoints
  6
ByBlock
 62
     0
440
 16777216
100
AcDbPoint
 10
603.7613782576592
 20
137.4628740558663
 30
0.0
  0
ENDBLK
  5
25CF
330
25CD
100
AcDbEntity
  8
0
 62
     4
100
AcDbBlockEnd
  0
BLOCK
  5
25DC
330
25DB
100
AcDbEntity
  8
0
 62
     4
100
AcDbBlockBegin
  2
*D38
 70
     1
 10
0.0
 20
0.0
 30
0.0
  3
*D38
  1

  0
LINE
  5
28C2
330
25DB
100
AcDbEntity
  8
CENTRE
  6
ByBlock
 62
     2
440
 16777216
370
    -2
100
AcDbLine
 10
602.6225941836567
 20
141.7128740788954
 30
0.0
 11
602.6225941836567
 21
122.7417151686446
 31
0.0
  0
LINE
  5
28C3
330
25DB
100
AcDbEntity
  8
CENTRE
  6
ByBlock
 62
     2
440
 16777216
370
    -2
100
AcDbLine
 10
619.6225942757729
 20
141.7128740788954
 30
0.0
 11
619.6225942757729
 21
122.7417151686446
 31
0.0
  0
LINE
  5
28C4
330
25DB
100
AcDbEntity
  8
CENTRE
  6
ByBlock
 62
     2
440
 16777216
370
    -2
100
AcDbLine
 10
604.1225941836566
 20
122.9917151686446
 30
0.0
 11
618.1225942757729
 21
122.9917151686446
 31
0.0
  0
SOLID
  5
28C5
330
25DB
100
AcDbEntity
  8
CENTRE
  6
ByBlock
 62
     2
440
 16777216
100
AcDbTrace
 10
604.1225941836566
 20
123.2417151686446
 30
0.0
 11
604.1225941836566
 21
122.7417151686446
 31
0.0
 12
602.6225941836567
 22
122.9917151686446
 32
0.0
 13
602.6225941836567
 23
122.9917151686446
 33
0.0
  0
SOLID
  5
28C6
330
25DB
100
AcDbEntity
  8
CENTRE
  6
ByBlock
 62
     2
440
 16777216
100
AcDbTrace
 10
618.1225942757729
 20
123.2417151686446
 30
0.0
 11
618.1225942757729
 21
122.7417151686446
 31
0.0
 12
619.6225942757729
 22
122.9917151686446
 32
0.0
 13
619.6225942757729
 23
122.9917151686446
 33
0.0
  0
MTEXT
  5
28C7
330
25DB
100
AcDbEntity
  8
CENTRE
  6
ByBlock
 62
     3
440
 16777216
100
AcDbMText
 10
610.8359050405843
 20
126.4917151686446
 30
0.0
 40
1.5
 41
0.0
 46
0.0
 71
     2
 72
     1
  1
\A1;%%c17
 73
     1
 44
1.0
  0
LINE
  5
28C8
330
25DB
100
AcDbEntity
  8
CENTRE
  6
ByBlock
 62
     2
440
 16777216
370
    -2
100
AcDbLine
 10
608.4109050405843
 20
123.9917151686446
 30
0.0
 11
613.2609050405842
 21
123.9917151686446
 31
0.0
  0
LINE
  5
28C9
330
25DB
100
AcDbEntity
  8
CENTRE
  6
ByBlock
 62
     2
440
 16777216
370
    -2
100
AcDbLine
 10
613.2609050405842
 20
123.9917151686446
 30
0.0
 11
613.2609050405842
 21
127.4917151686446
 31
0.0
  0
LINE
  5
28CA
330
25DB
100
AcDbEntity
  8
CENTRE
  6
ByBlock
 62
     2
440
 16777216
370
    -2
100
AcDbLine
 10
613.2609050405842
 20
127.4917151686446
 30
0.0
 11
608.4109050405843
 21
127.4917151686446
 31
0.0
  0
LINE
  5
28CB
330
25DB
100
AcDbEntity
  8
CENTRE
  6
ByBlock
 62
     2
440
 16777216
370
    -2
100
AcDbLine
 10
608.4109050405843
 20
127.4917151686446
 30
0.0
 11
608.4109050405843
 21
123.9917151686446
 31
0.0
  0
POINT
  5
28CC
330
25DB
100
AcDbEntity
  8
Defpoints
  6
ByBlock
 62
     0
440
 16777216
100
AcDbPoint
 10
602.6225941836567
 20
141.7128740788954
 30
0.0
  0
POINT
  5
28CD
330
25DB
100
AcDbEntity
  8
Defpoints
  6
ByBlock
 62
     0
440
 16777216
100
AcDbPoint
 10
619.6225942757729
 20
141.7128740788954
 30
0.0
  0
POINT
  5
28CE
330
25DB
100
AcDbEntity
  8
Defpoints
  6
ByBlock
 62
     0
440
 16777216
100
AcDbPoint
 10
619.6225942757729
 20
122.9917151686446
 30
0.0
  0
ENDBLK
  5
25DD
330
25DB
100
AcDbEntity
  8
0
 62
     4
100
AcDbBlockEnd
  0
BLOCK
  5
2610
330
260F
100
AcDbEntity
  8
0
 62
     4
100
AcDbBlockBegin
  2
*D39
 70
     1
 10
0.0
 20
0.0
 30
0.0
  3
*D39
  1

  0
LINE
  5
320D
330
260F
100
AcDbEntity
  8
CENTRE
  6
ByBlock
 62
     2
440
 16777216
370
    -2
100
AcDbLine
 10
704.0758935949366
 20
136.7128740518024
 30
0.0
 11
712.5152017582948
 21
136.7128740518024
 31
0.0
  0
LINE
  5
320E
330
260F
100
AcDbEntity
  8
CENTRE
  6
ByBlock
 62
     2
440
 16777216
370
    -2
100
AcDbLine
 10
713.4535352684021
 20
136.7128740518024
 30
0.0
 11
718.7938916815559
 21
136.7128740518024
 31
0.0
  0
LINE
  5
320F
330
260F
100
AcDbEntity
  8
CENTRE
  6
ByBlock
 62
     2
440
 16777216
370
    -2
100
AcDbLine
 10
719.5303484550777
 20
136.7128740518024
 30
0.0
 11
724.1342480947097
 21
136.7128740518024
 31
0.0
  0
LINE
  5
3210
330
260F
100
AcDbEntity
  8
CENTRE
  6
ByBlock
 62
     2
440
 16777216
370
    -2
100
AcDbLine
 10
704.0758935949366
 20
146.7128741059885
 30
0.0
 11
708.793870479206
 21
146.7128741059885
 31
0.0
  0
LINE
  5
3211
330
260F
100
AcDbEntity
  8
CENTRE
  6
ByBlock
 62
     2
440
 16777216
370
    -2
100
AcDbLine
 10
710.0868663557981
 20
146.7128741059885
 30
0.0
 11
718.5905452910467
 21
146.7128741059885
 31
0.0
  0
LINE
  5
3212
330
260F
100
AcDbEntity
  8
CENTRE
  6
ByBlock
 62
     2
440
 16777216
370
    -2
100
AcDbLine
 10
719.6798602459629
 20
146.7128741059885
 30
0.0
 11
724.1342480947097
 21
146.7128741059885
 31
0.0
  0
LINE
  5
3213
330
260F
100
AcDbEntity
  8
CENTRE
  6
ByBlock
 62
     2
440
 16777216
370
    -2
100
AcDbLine
 10
723.8842480947097
 20
138.2128740518024
 30
0.0
 11
723.8842480947097
 21
145.2128741059885
 31
0.0
  0
LINE
  5
3214
330
260F
100
AcDbEntity
  8
CENTRE
  6
ByBlock
 62
     2
440
 16777216
370
    -2
100
AcDbLine
 10
723.8842480947097
 20
146.7128741059885
 30
0.0
 11
723.8842480947097
 21
152.454492448972
 31
0.0
  0
SOLID
  5
3215
330
260F
100
AcDbEntity
  8
CENTRE
  6
ByBlock
 62
     2
440
 16777216
100
AcDbTrace
 10
723.6342480947097
 20
138.2128740518024
 30
0.0
 11
724.1342480947097
 21
138.2128740518024
 31
0.0
 12
723.8842480947097
 22
136.7128740518024
 32
0.0
 13
723.8842480947097
 23
136.7128740518024
 33
0.0
  0
SOLID
  5
3216
330
260F
100
AcDbEntity
  8
CENTRE
  6
ByBlock
 62
     2
440
 16777216
100
AcDbTrace
 10
723.6342480947097
 20
145.2128741059885
 30
0.0
 11
724.1342480947097
 21
145.2128741059885
 31
0.0
 12
723.8842480947097
 22
146.7128741059885
 32
0.0
 13
723.8842480947097
 23
146.7128741059885
 33
0.0
  0
MTEXT
  5
3217
330
260F
100
AcDbEntity
  8
CENTRE
  6
ByBlock
 62
     3
440
 16777216
100
AcDbMText
 10
721.9842480947098
 20
150.629492448972
 30
0.0
 40
1.5
 41
0.0
 46
0.0
 71
     2
 72
     1
  1
%%c10
 11
0.0000000000000001
 21
1.0
 31
0.0
 73
     1
 44
1.0
  0
POINT
  5
3218
330
260F
100
AcDbEntity
  8
Defpoints
  6
ByBlock
 62
     0
440
 16777216
100
AcDbPoint
 10
704.0758935949366
 20
136.7128740518024
 30
0.0
  0
POINT
  5
3219
330
260F
100
AcDbEntity
  8
Defpoints
  6
ByBlock
 62
     0
440
 16777216
100
AcDbPoint
 10
704.0758935949366
 20
146.7128741059885
 30
0.0
  0
POINT
  5
321A
330
260F
100
AcDbEntity
  8
Defpoints
  6
ByBlock
 62
     0
440
 16777216
100
AcDbPoint
 10
723.8842480947097
 20
146.7128741059885
 30
0.0
  0
ENDBLK
  5
2611
330
260F
100
AcDbEntity
  8
0
 62
     4
100
AcDbBlockEnd
  0
BLOCK
  5
2648
330
2647
100
AcDbEntity
  8
0
 62
     4
100
AcDbBlockBegin
  2
*D40
 70
     1
 10
0.0
 20
0.0
 30
0.0
  3
*D40
  1

  0
LINE
  5
3170
330
2647
100
AcDbEntity
  8
CENTRE
  6
ByBlock
 62
     2
440
 16777216
370
    -2
100
AcDbLine
 10
760.7806816844134
 20
137.712874057221
 30
0.0
 11
768.4480242451029
 21
133.2861317658382
 31
0.0
  0
LINE
  5
3171
330
2647
100
AcDbEntity
  8
CENTRE
  6
ByBlock
 62
     2
440
 16777216
370
    -2
100
AcDbLine
 10
769.2657619741148
 20
132.8140106678667
 30
0.0
 11
772.6979551060328
 21
130.8324330392431
 31
0.0
  0
LINE
  5
3172
330
2647
100
AcDbEntity
  8
CENTRE
  6
ByBlock
 62
     2
440
 16777216
370
    -2
100
AcDbLine
 10
753.8524784165963
 20
153.2331992637034
 30
0.0
 11
753.8524784165963
 21
156.7920137320237
 31
0.0
  0
LINE
  5
3173
330
2647
100
AcDbEntity
  8
CENTRE
  6
ByBlock
 62
     2
440
 16777216
370
    -2
100
AcDbLine
 10
753.8524784165963
 20
157.7062051831432
 30
0.0
 11
753.8524784165963
 21
163.4737561582012
 31
0.0
  0
ARC
  5
3174
330
2647
100
AcDbEntity
  8
CENTRE
  6
ByBlock
 62
     2
440
 16777216
370
    -2
100
AcDbCircle
 10
753.8524784165963
 20
141.7128740788955
 30
0.0
 40
21.51088207930573
100
AcDbArc
 50
333.9961676741018
 51
86.00383232589983
  0
SOLID
  5
3175
330
2647
100
AcDbEntity
  8
CENTRE
  6
ByBlock
 62
     2
440
 16777216
100
AcDbTrace
 10
773.4064333648786
 20
132.1644556039238
 30
0.0
 11
772.9649674190475
 21
132.3992061495492
 31
0.0
 12
772.4814487550868
 22
130.9574330392431
 32
0.0
 13
772.4814487550868
 23
130.9574330392431
 33
0.0
  0
SOLID
  5
3176
330
2647
100
AcDbEntity
  8
CENTRE
  6
ByBlock
 62
     2
440
 16777216
100
AcDbTrace
 10
755.342849888595
 20
162.9216090492422
 30
0.0
 11
755.3602829254466
 21
163.4213050460504
 31
0.0
 12
753.8524784165963
 22
163.2237561582012
 32
0.0
 13
753.8524784165963
 23
163.2237561582012
 33
0.0
  0
MTEXT
  5
3177
330
2647
100
AcDbEntity
  8
CENTRE
  6
ByBlock
 62
     3
440
 16777216
100
AcDbMText
 10
773.4340766992492
 20
153.0183151185486
 30
0.0
 40
1.5
 41
0.0
 46
0.0
 71
     5
 72
     1
  1
\A1;120\U+00B0
 11
0.5000000000000088
 21
-0.8660254037844335
 31
0.0
 73
     1
 44
1.0
  0
POINT
  5
3178
330
2647
100
AcDbEntity
  8
Defpoints
  6
ByBlock
 62
     0
440
 16777216
100
AcDbPoint
 10
775.0365618624279
 20
145.4481995519755
 30
0.0
  0
POINT
  5
3179
330
2647
100
AcDbEntity
  8
Defpoints
  6
ByBlock
 62
     0
440
 16777216
100
AcDbPoint
 10
753.8524784165963
 20
153.2331992637034
 30
0.0
  0
POINT
  5
317A
330
2647
100
AcDbEntity
  8
Defpoints
  6
ByBlock
 62
     0
440
 16777216
100
AcDbPoint
 10
760.7806816844134
 20
137.712874057221
 30
0.0
  0
POINT
  5
317B
330
2647
100
AcDbEntity
  8
Defpoints
  6
ByBlock
 62
     0
440
 16777216
100
AcDbPoint
 10
753.8524784165963
 20
141.7128740788955
 30
0.0
  0
POINT
  5
317C
330
2647
100
AcDbEntity
  8
Defpoints
  6
ByBlock
 62
     0
440
 16777216
100
AcDbPoint
 10
753.8524784165963
 20
129.7128740138723
 30
0.0
  0
ENDBLK
  5
2649
330
2647
100
AcDbEntity
  8
0
 62
     4
100
AcDbBlockEnd
  0
BLOCK
  5
2687
330
2686
100
AcDbEntity
  8
0
 62
     4
100
AcDbBlockBegin
  2
*D41
 70
     1
 10
0.0
 20
0.0
 30
0.0
  3
*D41
  1

  0
LINE
  5
2D8B
330
2686
100
AcDbEntity
  8
0
 62
     2
440
 16777216
370
    -2
100
AcDbLine
 10
610.1243258273363
 20
150.1540505952227
 30
0.0
 11
610.1243258273363
 21
156.8336116014215
 31
0.0
  0
LINE
  5
2D8C
330
2686
100
AcDbEntity
  8
0
 62
     2
440
 16777216
370
    -2
100
AcDbLine
 10
610.1243258273363
 20
158.333413333385
 30
0.0
 11
610.1243258273363
 21
161.628899401599
 31
0.0
  0
LINE
  5
2D8D
330
2686
100
AcDbEntity
  8
0
 62
     2
440
 16777216
370
    -2
100
AcDbLine
 10
612.1208626321158
 20
150.1540505952227
 30
0.0
 11
612.1208626321158
 21
161.628899401599
 31
0.0
  0
LINE
  5
2D8E
330
2686
100
AcDbEntity
  8
0
 62
     2
440
 16777216
370
    -2
100
AcDbLine
 10
608.6243258273364
 20
161.378899401599
 30
0.0
 11
607.1243258273364
 21
161.378899401599
 31
0.0
  0
LINE
  5
2D8F
330
2686
100
AcDbEntity
  8
0
 62
     2
440
 16777216
370
    -2
100
AcDbLine
 10
613.6208626321158
 20
161.378899401599
 30
0.0
 11
628.0208626321158
 21
161.378899401599
 31
0.0
  0
LINE
  5
2D90
330
2686
100
AcDbEntity
  8
0
 62
     2
440
 16777216
370
    -2
100
AcDbLine
 10
610.1243258273363
 20
161.378899401599
 30
0.0
 11
612.1208626321158
 21
161.378899401599
 31
0.0
  0
SOLID
  5
2D91
330
2686
100
AcDbEntity
  8
0
 62
     2
440
 16777216
100
AcDbTrace
 10
608.6243258273364
 20
161.628899401599
 30
0.0
 11
608.6243258273364
 21
161.128899401599
 31
0.0
 12
610.1243258273363
 22
161.378899401599
 32
0.0
 13
610.1243258273363
 23
161.378899401599
 33
0.0
  0
SOLID
  5
2D92
330
2686
100
AcDbEntity
  8
0
 62
     2
440
 16777216
100
AcDbTrace
 10
613.6208626321158
 20
161.628899401599
 30
0.0
 11
613.6208626321158
 21
161.128899401599
 31
0.0
 12
612.1208626321158
 22
161.378899401599
 32
0.0
 13
612.1208626321158
 23
161.378899401599
 33
0.0
  0
MTEXT
  5
2D93
330
2686
100
AcDbEntity
  8
0
 62
     3
440
 16777216
100
AcDbMText
 10
621.5708626321159
 20
162.4294675834172
 30
0.0
 40
1.5
 41
0.0
 46
0.0
 71
     5
 72
     1
  1
\A1;3xM2  3.0 min
 73
     1
 44
1.0
  0
POINT
  5
2D94
330
2686
100
AcDbEntity
  8
Defpoints
 62
     0
440
 16777216
100
AcDbPoint
 10
610.1243258273363
 20
150.1540505952227
 30
0.0
  0
POINT
  5
2D95
330
2686
100
AcDbEntity
  8
Defpoints
 62
     0
440
 16777216
100
AcDbPoint
 10
612.1208626321158
 20
150.1540505952227
 30
0.0
  0
POINT
  5
2D96
330
2686
100
AcDbEntity
  8
Defpoints
 62
     0
440
 16777216
100
AcDbPoint
 10
612.1208626321158
 20
161.378899401599
 30
0.0
  0
ENDBLK
  5
2688
330
2686
100
AcDbEntity
  8
0
 62
     4
100
AcDbBlockEnd
  0
ENDSEC
  0
SECTION
  2
ENTITIES
  0
INSERT
  5
56C
330
6B
100
AcDbEntity
  8
0
100
AcDbBlockReference
  2
TOP__20_TOP_
 10
0.0
 20
0.0
 30
0.0
 41
4.0
 42
4.0
 43
4.0
  0
INSERT
  5
767
330
6B
100
AcDbEntity
  8
0
100
AcDbBlockReference
  2
TOP__10
 10
-145.6807768732349
 20
718.54832106492
 30
0.0
  0
INSERT
  5
768
330
6B
100
AcDbEntity
  8
0
100
AcDbBlockReference
  2
TOP__16
 10
-97.67304726203398
 20
598.9628230465271
 30
0.0
  0
INSERT
  5
769
330
6B
100
AcDbEntity
  8
0
100
AcDbBlockReference
  2
TOP__19
 10
-137.643085901727
 20
717.5072456649732
 30
0.0
  0
LINE
  5
2444
330
6B
100
AcDbEntity
  8
0
 62
   255
100
AcDbLine
 10
654.3922272456192
 20
135.5068873256892
 30
0.0
 11
667.8758941335459
 21
135.5068873256892
 31
0.0
  0
LINE
  5
2445
330
6B
100
AcDbEntity
  8
0
 62
   255
100
AcDbLine
 10
654.000859420613
 20
136.962874205894
 30
0.0
 11
667.8758941335459
 21
136.962874205894
 31
0.0
  0
LINE
  5
2446
330
6B
100
AcDbEntity
  8
0
 62
   255
100
AcDbLine
 10
667.8758941335459
 20
138.4628739942298
 30
0.0
 11
654.6421867754204
 21
138.4628739942298
 31
0.0
  0
LINE
  5
2447
330
6B
100
AcDbEntity
  8
0
 62
   255
100
AcDbLine
 10
654.8032124494437
 20
138.6239003667452
 30
0.0
 11
667.8758941335459
 21
138.6239003667452
 31
0.0
  0
LINE
  5
2448
330
6B
100
AcDbEntity
  8
0
 62
   255
100
AcDbLine
 10
667.8758941335459
 20
140.1239003879117
 30
0.0
 11
655.6887754254762
 21
140.1239003879117
 31
0.0
  0
LINE
  5
2449
330
6B
100
AcDbEntity
  8
0
 62
   255
100
AcDbLine
 10
667.8758941335459
 20
151.2128738248984
 30
0.0
 11
655.2456651805892
 21
151.2128738248984
 31
0.0
  0
LINE
  5
244A
330
6B
100
AcDbEntity
  8
0
 62
   255
100
AcDbLine
 10
667.8758941335459
 20
151.1252866615715
 30
0.0
 11
655.2692090154033
 21
151.1252866615715
 31
0.0
  0
LINE
  5
244B
330
6B
100
AcDbEntity
  8
0
 62
   255
100
AcDbLine
 10
654.8835706869072
 20
148.1447507954923
 30
0.0
 11
667.8758941335459
 21
148.1447507954923
 31
0.0
  0
LINE
  5
244C
330
6B
100
AcDbEntity
  8
0
 62
   255
100
AcDbLine
 10
667.8758941335459
 20
149.1447504991624
 30
0.0
 11
655.8015753536799
 21
149.1447504991624
 31
0.0
  0
LINE
  5
244D
330
6B
100
AcDbEntity
  8
0
 62
   255
100
AcDbLine
 10
655.6081806320775
 20
149.8642293225803
 30
0.0
 11
667.8758941335459
 21
149.8642293225803
 31
0.0
  0
LINE
  5
244E
330
6B
100
AcDbEntity
  8
0
 62
   255
100
AcDbLine
 10
667.8758941335459
 20
150.8642294919116
 30
0.0
 11
655.3393804464906
 21
150.8642294919116
 31
0.0
  0
LINE
  5
244F
330
6B
100
AcDbEntity
  8
0
 62
   255
100
AcDbLine
 10
702.8758944586618
 20
152.7128740788955
 30
0.0
 11
701.8758924266858
 21
152.7128740788955
 31
0.0
  0
LINE
  5
2450
330
6B
100
AcDbEntity
  8
0
 62
   255
100
AcDbLine
 10
701.8758924266858
 20
130.7128740788955
 30
0.0
 11
702.8758944586618
 21
130.7128740788955
 31
0.0
  0
LINE
  5
2451
330
6B
100
AcDbEntity
  8
0
 62
   255
100
AcDbLine
 10
704.0758924266855
 20
146.7128739942297
 30
0.0
 11
702.8758944586618
 21
146.7128739942297
 31
0.0
  0
LINE
  5
2452
330
6B
100
AcDbEntity
  8
0
 62
   255
100
AcDbLine
 10
702.8758944586618
 20
136.7128741635611
 30
0.0
 11
704.0758924266855
 21
136.7128741635611
 31
0.0
  0
LINE
  5
2453
330
6B
100
AcDbEntity
  8
0
 62
   255
100
AcDbLine
 10
704.0758924266855
 20
136.7128741635611
 30
0.0
 11
704.375890056046
 21
137.0128741212283
 31
0.0
  0
LINE
  5
2454
330
6B
100
AcDbEntity
  8
0
 62
   255
100
AcDbLine
 10
704.375890056046
 20
146.4128740365626
 30
0.0
 11
704.0758924266855
 21
146.7128739942297
 31
0.0
  0
LINE
  5
2455
330
6B
100
AcDbEntity
  8
0
 62
   255
100
AcDbLine
 10
667.8758941335459
 20
130.7128740788955
 30
0.0
 11
668.8758947685386
 21
130.7128740788955
 31
0.0
  0
LINE
  5
2456
330
6B
100
AcDbEntity
  8
0
 62
   255
100
AcDbLine
 10
668.8758947685386
 20
152.7128740788955
 30
0.0
 11
667.8758941335459
 21
152.7128740788955
 31
0.0
  0
LINE
  5
2457
330
6B
100
AcDbEntity
  8
0
 62
   255
100
AcDbLine
 10
667.8758941335459
 20
146.7128739942297
 30
0.0
 11
666.375894810871
 21
146.7128739942297
 31
0.0
  0
LINE
  5
2458
102
{ACAD_REACTORS
330
2501
102
}
330
6B
100
AcDbEntity
  8
0
 62
   255
100
AcDbLine
 10
712.5758947973247
 20
143.2128741000619
 30
0.0
 11
704.375890056046
 21
143.2128741000619
 31
0.0
  0
LINE
  5
2459
330
6B
100
AcDbEntity
  8
0
 62
   255
100
AcDbLine
 10
704.375890056046
 20
140.212874057729
 30
0.0
 11
712.5758947973247
 21
140.212874057729
 31
0.0
  0
LINE
  5
245A
330
6B
100
AcDbEntity
  8
0
 62
   255
100
AcDbLine
 10
712.5758947973247
 20
140.212874057729
 30
0.0
 11
712.8758924266853
 21
140.3860791027881
 31
0.0
  0
LINE
  5
245B
330
6B
100
AcDbEntity
  8
0
 62
   255
100
AcDbLine
 10
712.8758924266853
 20
143.0396690550028
 30
0.0
 11
712.5758947973247
 21
143.2128741000619
 31
0.0
  0
LINE
  5
245C
330
6B
100
AcDbEntity
  8
0
 62
   255
100
AcDbLine
 10
667.8758941335459
 20
130.7128740788955
 30
0.0
 11
701.8758924266858
 21
130.7128740788955
 31
0.0
  0
LINE
  5
245D
330
6B
100
AcDbEntity
  8
0
 62
   255
100
AcDbLine
 10
701.8758924266858
 20
152.7128740788955
 30
0.0
 11
667.8758941335459
 21
152.7128740788955
 31
0.0
  0
LINE
  5
245E
330
6B
100
AcDbEntity
  8
0
 62
   255
100
AcDbLine
 10
702.8758944586618
 20
152.7128740788955
 30
0.0
 11
702.8758944586618
 21
130.7128740788955
 31
0.0
  0
LINE
  5
245F
330
6B
100
AcDbEntity
  8
0
 62
   255
100
AcDbLine
 10
701.8758924266858
 20
152.7128740788955
 30
0.0
 11
701.8758924266858
 21
130.7128740788955
 31
0.0
  0
LINE
  5
2460
330
6B
100
AcDbEntity
  8
0
 62
     2
100
AcDbLine
 10
704.0758924266855
 20
136.7128741635611
 30
0.0
 11
704.0758924266855
 21
146.7128739942297
 31
0.0
  0
LINE
  5
2461
330
6B
100
AcDbEntity
  8
0
 62
   255
100
AcDbLine
 10
704.375890056046
 20
141.7128740788955
 30
0.0
 11
704.375890056046
 21
137.0128741212283
 31
0.0
  0
LINE
  5
2462
330
6B
100
AcDbEntity
  8
0
 62
   255
100
AcDbLine
 10
704.375890056046
 20
146.4128740365626
 30
0.0
 11
704.375890056046
 21
141.7128740788955
 31
0.0
  0
LINE
  5
2463
330
6B
100
AcDbEntity
  8
0
 62
   255
100
AcDbLine
 10
668.8758947685386
 20
130.7128740788955
 30
0.0
 11
668.8758947685386
 21
152.7128740788955
 31
0.0
  0
LINE
  5
2464
330
6B
100
AcDbEntity
  8
0
 62
   255
100
AcDbLine
 10
667.8758941335459
 20
130.7128740788955
 30
0.0
 11
667.8758941335459
 21
152.7128740788955
 31
0.0
  0
LINE
  5
2465
330
6B
100
AcDbEntity
  8
0
 62
   255
100
AcDbLine
 10
666.375894810871
 20
138.4628739942298
 30
0.0
 11
666.375894810871
 21
138.6239003667452
 31
0.0
  0
LINE
  5
2466
330
6B
100
AcDbEntity
  8
0
 62
   255
100
AcDbLine
 10
666.375894810871
 20
140.1239003879117
 30
0.0
 11
666.375894810871
 21
146.7128739942297
 31
0.0
  0
LINE
  5
2467
330
6B
100
AcDbEntity
  8
0
 62
     2
100
AcDbLine
 10
712.5758947973247
 20
140.212874057729
 30
0.0
 11
712.5758947973247
 21
143.2128741000619
 31
0.0
  0
LINE
  5
2468
330
6B
100
AcDbEntity
  8
0
 62
   255
100
AcDbLine
 10
712.8758924266853
 20
143.0396690550028
 30
0.0
 11
712.8758924266853
 21
140.3860791027881
 31
0.0
  0
LINE
  5
2469
330
6B
100
AcDbEntity
  8
0
 62
   255
100
AcDbLine
 10
641.3963528228804
 20
135.5068873256892
 30
0.0
 11
652.8922262171959
 21
135.5068873256892
 31
0.0
  0
LINE
  5
246A
330
6B
100
AcDbEntity
  8
0
 62
   255
100
AcDbLine
 10
641.3963528228804
 20
136.7568870716921
 30
0.0
 11
639.8963572254963
 21
136.7568870716921
 31
0.0
  0
LINE
  5
246B
330
6B
100
AcDbEntity
  8
0
 62
   255
100
AcDbLine
 10
639.8963572254963
 20
135.756887368022
 30
0.0
 11
641.3963528228804
 21
135.756887368022
 31
0.0
  0
LINE
  5
246C
330
6B
100
AcDbEntity
  8
0
 62
   255
100
AcDbLine
 10
641.3963528228804
 20
136.962874205894
 30
0.0
 11
652.5008621174797
 21
136.962874205894
 31
0.0
  0
LINE
  5
246D
330
6B
100
AcDbEntity
  8
0
 62
   255
100
AcDbLine
 10
653.1421857469963
 20
138.4628739942298
 30
0.0
 11
641.3963528228804
 21
138.4628739942298
 31
0.0
  0
LINE
  5
246E
330
6B
100
AcDbEntity
  8
0
 62
   255
100
AcDbLine
 10
641.3963528228804
 20
138.2128739518969
 30
0.0
 11
639.8963572254963
 21
138.2128739518969
 31
0.0
  0
LINE
  5
246F
330
6B
100
AcDbEntity
  8
0
 62
   255
100
AcDbLine
 10
639.8963572254963
 20
137.2128742482268
 30
0.0
 11
641.3963528228804
 21
137.2128742482268
 31
0.0
  0
LINE
  5
2470
330
6B
100
AcDbEntity
  8
0
 62
   255
100
AcDbLine
 10
641.3963528228804
 20
138.6239003667452
 30
0.0
 11
653.3032151463103
 21
138.6239003667452
 31
0.0
  0
LINE
  5
2471
330
6B
100
AcDbEntity
  8
0
 62
   255
100
AcDbLine
 10
654.188776259698
 20
140.1239003879117
 30
0.0
 11
641.3963528228804
 21
140.1239003879117
 31
0.0
  0
LINE
  5
2472
330
6B
100
AcDbEntity
  8
0
 62
   255
100
AcDbLine
 10
641.3963528228804
 20
139.8739004619941
 30
0.0
 11
639.8963572254963
 21
139.8739004619941
 31
0.0
  0
LINE
  5
2473
330
6B
100
AcDbEntity
  8
0
 62
   255
100
AcDbLine
 10
639.8963572254963
 20
138.8739004090781
 30
0.0
 11
641.3963528228804
 21
138.8739004090781
 31
0.0
  0
LINE
  5
2474
330
6B
100
AcDbEntity
  8
0
 62
   255
100
AcDbLine
 10
653.7456678774559
 20
151.2128738248984
 30
0.0
 11
641.3963528228804
 21
151.2128738248984
 31
0.0
  0
LINE
  5
2475
330
6B
100
AcDbEntity
  8
0
 62
   255
100
AcDbLine
 10
641.3963528228804
 20
151.0128741635611
 30
0.0
 11
639.8963572254963
 21
151.0128741635611
 31
0.0
  0
LINE
  5
2476
330
6B
100
AcDbEntity
  8
0
 62
   255
100
AcDbLine
 10
653.7692117122698
 20
151.1252866615715
 30
0.0
 11
641.3963528228804
 21
151.1252866615715
 31
0.0
  0
LINE
  5
2477
330
6B
100
AcDbEntity
  8
0
 62
   255
100
AcDbLine
 10
641.3963528228804
 20
150.9252870002343
 30
0.0
 11
639.8963572254963
 21
150.9252870002343
 31
0.0
  0
LINE
  5
2478
330
6B
100
AcDbEntity
  8
0
 62
   255
100
AcDbLine
 10
641.3963528228804
 20
148.1447507954923
 30
0.0
 11
653.3835696584833
 21
148.1447507954923
 31
0.0
  0
LINE
  5
2479
330
6B
100
AcDbEntity
  8
0
 62
   255
100
AcDbLine
 10
654.3015780505466
 20
149.1447504991624
 30
0.0
 11
641.3963528228804
 21
149.1447504991624
 31
0.0
  0
LINE
  5
247A
330
6B
100
AcDbEntity
  8
0
 62
   255
100
AcDbLine
 10
641.3963528228804
 20
148.9447503721638
 30
0.0
 11
639.8963572254963
 21
148.9447503721638
 31
0.0
  0
LINE
  5
247B
330
6B
100
AcDbEntity
  8
0
 62
   255
100
AcDbLine
 10
639.8963572254963
 20
148.3447504568295
 30
0.0
 11
641.3963528228804
 21
148.3447504568295
 31
0.0
  0
LINE
  5
247C
330
6B
100
AcDbEntity
  8
0
 62
   255
100
AcDbLine
 10
641.3963528228804
 20
149.8642293225803
 30
0.0
 11
654.1081833289442
 21
149.8642293225803
 31
0.0
  0
LINE
  5
247D
330
6B
100
AcDbEntity
  8
0
 62
   255
100
AcDbLine
 10
653.8393812807121
 20
150.8642294919116
 30
0.0
 11
641.3963528228804
 21
150.8642294919116
 31
0.0
  0
LINE
  5
247E
330
6B
100
AcDbEntity
  8
0
 62
   255
100
AcDbLine
 10
641.3963528228804
 20
150.6642298305744
 30
0.0
 11
639.8963572254963
 21
150.6642298305744
 31
0.0
  0
LINE
  5
247F
330
6B
100
AcDbEntity
  8
0
 62
   255
100
AcDbLine
 10
639.8963572254963
 20
150.0642289839175
 30
0.0
 11
641.3963528228804
 21
150.0642289839175
 31
0.0
  0
LINE
  5
2480
330
6B
100
AcDbEntity
  8
0
 62
   255
100
AcDbLine
 10
641.3963528228804
 20
136.2568869870264
 30
0.0
 11
641.3963528228804
 21
135.5068873256892
 31
0.0
  0
LINE
  5
2481
330
6B
100
AcDbEntity
  8
0
 62
   255
100
AcDbLine
 10
641.3963528228804
 20
136.962874205894
 30
0.0
 11
641.3963528228804
 21
136.2568869870264
 31
0.0
  0
LINE
  5
2482
330
6B
100
AcDbEntity
  8
0
 62
   255
100
AcDbLine
 10
639.8963572254963
 20
135.756887368022
 30
0.0
 11
639.8963572254963
 21
136.7568870716921
 31
0.0
  0
LINE
  5
2483
330
6B
100
AcDbEntity
  8
0
 62
   255
100
AcDbLine
 10
641.3963528228804
 20
137.8815873763192
 30
0.0
 11
641.3963528228804
 21
136.962874205894
 31
0.0
  0
LINE
  5
2484
330
6B
100
AcDbEntity
  8
0
 62
   255
100
AcDbLine
 10
641.3963528228804
 20
138.4628739942298
 30
0.0
 11
641.3963528228804
 21
137.8815873763192
 31
0.0
  0
LINE
  5
2485
330
6B
100
AcDbEntity
  8
0
 62
   255
100
AcDbLine
 10
639.8963572254963
 20
137.2128742482268
 30
0.0
 11
639.8963572254963
 21
138.2128739518969
 31
0.0
  0
LINE
  5
2486
330
6B
100
AcDbEntity
  8
0
 62
   255
100
AcDbLine
 10
641.3963528228804
 20
139.7026787847838
 30
0.0
 11
641.3963528228804
 21
138.6239003667452
 31
0.0
  0
LINE
  5
2487
330
6B
100
AcDbEntity
  8
0
 62
   255
100
AcDbLine
 10
641.3963528228804
 20
140.1239003879117
 30
0.0
 11
641.3963528228804
 21
139.7026787847838
 31
0.0
  0
LINE
  5
2488
330
6B
100
AcDbEntity
  8
0
 62
   255
100
AcDbLine
 10
639.8963572254963
 20
138.8739004090781
 30
0.0
 11
639.8963572254963
 21
139.8739004619941
 31
0.0
  0
LINE
  5
2489
330
6B
100
AcDbEntity
  8
0
 62
   255
100
AcDbLine
 10
641.3963528228804
 20
151.2128738248984
 30
0.0
 11
641.3963528228804
 21
150.8642294919116
 31
0.0
  0
LINE
  5
248A
330
6B
100
AcDbEntity
  8
0
 62
   255
100
AcDbLine
 10
639.8963572254963
 20
150.9252870002343
 30
0.0
 11
639.8963572254963
 21
151.0128741635611
 31
0.0
  0
LINE
  5
248B
330
6B
100
AcDbEntity
  8
0
 62
   255
100
AcDbLine
 10
639.8963572254963
 20
150.6642298305744
 30
0.0
 11
639.8963572254963
 21
150.9252870002343
 31
0.0
  0
LINE
  5
248C
330
6B
100
AcDbEntity
  8
0
 62
   255
100
AcDbLine
 10
641.3963528228804
 20
148.6447504144967
 30
0.0
 11
641.3963528228804
 21
148.1447507954923
 31
0.0
  0
LINE
  5
248D
330
6B
100
AcDbEntity
  8
0
 62
   255
100
AcDbLine
 10
641.3963528228804
 20
149.1447504991624
 30
0.0
 11
641.3963528228804
 21
148.6447504144967
 31
0.0
  0
LINE
  5
248E
330
6B
100
AcDbEntity
  8
0
 62
   255
100
AcDbLine
 10
639.8963572254963
 20
148.3447504568295
 30
0.0
 11
639.8963572254963
 21
148.9447503721638
 31
0.0
  0
LINE
  5
248F
330
6B
100
AcDbEntity
  8
0
 62
   255
100
AcDbLine
 10
641.3963528228804
 20
150.3642294072459
 30
0.0
 11
641.3963528228804
 21
149.8642293225803
 31
0.0
  0
LINE
  5
2490
330
6B
100
AcDbEntity
  8
0
 62
   255
100
AcDbLine
 10
641.3963528228804
 20
150.8642294919116
 30
0.0
 11
641.3963528228804
 21
150.3642294072459
 31
0.0
  0
LINE
  5
2491
330
6B
100
AcDbEntity
  8
0
 62
   255
100
AcDbLine
 10
639.8963572254963
 20
150.0642289839175
 30
0.0
 11
639.8963572254963
 21
150.6642298305744
 31
0.0
  0
DIMENSION
  5
2492
330
6B
100
AcDbEntity
  8
CENTRE
  6
ByBlock
 62
   255
100
AcDbDimension
  2
*D25
 10
667.8758945969714
 20
116.991715136133
 30
0.0
 11
654.4777219746613
 21
118.5946612091616
 31
0.0
 70
   160
  1
300
 71
     2
 42
27.97953858740994
 73
     0
 74
     0
 75
     0
  3
DMST_1
100
AcDbAlignedDimension
 13
639.8963560095615
 23
135.7568871661223
 33
0.0
 14
667.8758945969714
 24
130.7128740192908
 34
0.0
100
AcDbRotatedDimension
1001
ACAD
1000
DSTYLE
1002
{
1070
    41
1040
1.5
1070
   140
1040
1.5
1070
   147
1040
0.2
1002
}
  0
DIMENSION
  5
2493
330
6B
100
AcDbEntity
  8
CENTRE
  6
ByBlock
 62
   255
100
AcDbDimension
  2
*D26
 10
702.8758935884343
 20
116.991715136133
 30
0.0
 11
685.37589386099
 21
116.991715136133
 31
0.0
 70
   160
 71
     2
 42
34.99999945488844
 73
     0
 74
     0
 75
     0
  3
DMST_1
100
AcDbAlignedDimension
 13
667.8758941335459
 23
130.7128740192908
 33
0.0
 14
702.8758935884343
 24
130.7128740192908
 34
0.0
100
AcDbRotatedDimension
1001
ACAD
1000
DSTYLE
1002
{
1070
   272
1070
     2
1070
   140
1040
1.5
1070
    41
1040
1.5
1070
   146
1040
0.8
1070
    47
1040
0.15
1070
   147
1040
1.0
1070
    48
1040
0.15
1070
    72
1070
     0
1070
    71
1070
     1
1070
   172
1070
     0
1070
   279
1070
     0
1002
}
  0
DIMENSION
  5
2494
330
6B
100
AcDbEntity
  8
CENTRE
  6
ByBlock
 62
   255
100
AcDbDimension
  2
*D27
 10
702.8758935884343
 20
123.537193702555
 30
0.0
 11
696.7258935884343
 21
123.537193702555
 31
0.0
 70
   160
 71
     2
 42
1.500000008127926
 73
     0
 74
     0
 75
     0
  3
DMST_1
100
AcDbAlignedDimension
 13
704.3758935965622
 23
137.012874053428
 33
0.0
 14
702.8758935884343
 24
130.7128740192908
 34
0.0
100
AcDbRotatedDimension
1001
ACAD
1000
DSTYLE
1002
{
1070
   147
1040
0.3
1070
    41
1040
1.5
1070
    47
1040
0.05
1070
    48
1040
0.05
1070
   140
1040
1.5
1070
   146
1040
0.8
1070
   172
1070
     1
1070
   272
1070
     2
1070
   279
1070
     0
1002
}
  0
DIMENSION
  5
2495
330
6B
100
AcDbEntity
  8
CENTRE
  6
ByBlock
 62
   255
100
AcDbDimension
  2
*D28
 10
712.87589364262
 20
116.991715136133
 30
0.0
 11
707.6187153240298
 21
116.991715136133
 31
0.0
 70
   160
 71
     2
 42
10.00000005418565
 73
     0
 74
     0
 75
     0
  3
DMST_1
100
AcDbAlignedDimension
 13
702.8758935884343
 23
130.7128740192908
 33
0.0
 14
712.87589364262
 24
140.386079152463
 34
0.0
100
AcDbRotatedDimension
1001
ACAD
1000
DSTYLE
1002
{
1070
   140
1040
1.5
1070
    41
1040
1.5
1070
   272
1070
     1
1070
    47
1040
0.2
1070
    48
1040
0.1
1070
   147
1040
1.0
1070
    72
1070
     0
1070
    71
1070
     1
1070
   279
1070
     0
1002
}
  0
DIMENSION
  5
2496
102
{ACAD_XDICTIONARY
360
3187
102
}
330
6B
100
AcDbEntity
  8
CENTRE
  6
ByBlock
 62
   255
100
AcDbDimension
  2
*D39
 10
723.8842480947097
 20
146.7128741059885
 30
0.0
 11
723.8842480947097
 21
150.629492448972
 31
0.0
 70
   160
  1
%%c<>
 71
     2
 42
10.00000005418604
 73
     0
 74
     0
 75
     0
  3
DMST_1
100
AcDbAlignedDimension
 13
704.0758935949366
 23
136.7128740518024
 33
0.0
 14
704.0758935949366
 24
146.7128741059885
 34
0.0
 50
90.0
100
AcDbRotatedDimension
1001
ACAD
1000
DSTYLE
1002
{
1070
   147
1040
0.4
1070
    72
1070
     0
1070
    71
1070
     0
1070
    41
1040
1.5
1070
    47
1040
-0.006
1070
    48
1040
0.009
1070
   140
1040
1.5
1070
   172
1070
     1
1070
   272
1070
     3
1070
   279
1070
     0
1070
   283
1070
     0
1002
}
  0
DIMENSION
  5
2499
330
6B
100
AcDbEntity
  8
CENTRE
  6
ByBlock
 62
   255
100
AcDbDimension
  2
*D29
 10
719.1262885021219
 20
140.2128740707675
 30
0.0
 11
719.1262885021219
 21
152.069127797291
 31
0.0
 70
   160
  1
%%c<>
 71
     2
 42
3.000000016255853
 73
     0
 74
     0
 75
     0
  3
DMST_1
100
AcDbAlignedDimension
 13
712.5758936409948
 23
143.2128740870234
 33
0.0
 14
712.5758936409948
 24
140.2128740707675
 34
0.0
 50
90.0
100
AcDbRotatedDimension
1001
ACAD
1000
DSTYLE
1002
{
1070
   147
1040
0.3
1070
   140
1040
1.5
1070
    41
1040
1.5
1070
   172
1070
     1
1070
   283
1070
     0
1070
   272
1070
     3
1070
    47
1040
-0.006
1070
    48
1040
0.009
1070
    71
1070
     1
1070
   279
1070
     0
1002
}
  0
DIMENSION
  5
249A
330
6B
100
AcDbEntity
  8
CENTRE
  6
ByBlock
 62
   255
100
AcDbDimension
  2
*D30
 10
667.8758945969714
 20
123.537193702555
 30
0.0
 11
674.0258945969713
 21
123.537193702555
 31
0.0
 70
   160
 71
     2
 42
1.499999786100374
 73
     0
 74
     0
 75
     0
  3
DMST_1
100
AcDbAlignedDimension
 13
666.375894810871
 23
140.1239003879117
 33
0.0
 14
667.8758945969714
 24
130.7128740192908
 34
0.0
100
AcDbRotatedDimension
1001
ACAD
1000
DSTYLE
1002
{
1070
    41
1040
1.5
1070
    47
1040
0.05
1070
    48
1040
0.05
1070
   140
1040
1.5
1070
   146
1040
0.8
1070
   147
1040
0.3
1070
   172
1070
     1
1070
   272
1070
     2
1070
   279
1070
     0
1002
}
  0
LINE
  5
249B
330
6B
100
AcDbEntity
  8
CENTRE
  6
ByBlock
 62
     2
100
AcDbLine
 10
681.0847803332771
 20
153.9628741452733
 30
0.0
 11
681.0847803332771
 21
163.0379462634893
 31
0.0
  0
SOLID
  5
249C
330
6B
100
AcDbEntity
  8
CENTRE
  6
ByBlock
 62
     2
100
AcDbTrace
 10
680.8347803339098
 20
154.2128741585489
 30
0.0
 11
681.3347803366188
 21
154.2128741585489
 31
0.0
 12
681.084780335264
 22
152.712874150421
 32
0.0
 13
681.084780335264
 23
152.712874150421
 33
0.0
  0
MTEXT
  5
249D
330
6B
100
AcDbEntity
  8
CENTRE
  6
ByBlock
 62
     3
100
AcDbMText
 10
679.0847803224405
 20
159.2978741741817
 30
0.0
 40
1.500000008127908
 41
0.0
 46
0.0
 71
     2
 72
     1
  1
\A1;%%C22{\H0.8x;±0.1}
 11
0.0000000000000001
 21
1.0
 31
0.0
 73
     1
 44
1.0
  0
LINE
  5
249E
330
6B
100
AcDbEntity
  8
0
  6
HIDDEN
 62
     2
 48
2.0
100
AcDbLine
 10
653.3189468519442
 20
152.8003741389742
 30
0.0
 11
654.3189468573627
 21
149.0801273986907
 31
0.0
  0
LINE
  5
249F
330
6B
100
AcDbEntity
  8
0
  6
HIDDEN
 62
     2
 48
2.0
100
AcDbLine
 10
654.3189468573627
 20
149.0801273986907
 30
0.0
 11
652.3189468465256
 21
147.0801273878534
 31
0.0
  0
LINE
  5
24A0
330
6B
100
AcDbEntity
  8
0
  6
HIDDEN
 62
     2
 48
2.0
100
AcDbLine
 10
652.3189468465256
 20
147.0801273878534
 30
0.0
 11
654.3189468573627
 21
139.6396339072864
 31
0.0
  0
LINE
  5
24A1
330
6B
100
AcDbEntity
  8
0
  6
HIDDEN
 62
     2
 48
2.0
100
AcDbLine
 10
654.3189468573627
 20
139.6396339072864
 30
0.0
 11
652.3189468465256
 21
137.6396338964492
 31
0.0
  0
LINE
  5
24A2
330
6B
100
AcDbEntity
  8
0
  6
HIDDEN
 62
     2
 48
2.0
100
AcDbLine
 10
652.3189468465256
 20
137.6396338964492
 30
0.0
 11
653.3189468519442
 21
133.9193871561656
 31
0.0
  0
LINE
  5
24A3
330
6B
100
AcDbEntity
  8
0
  6
HIDDEN
 62
     2
 48
2.0
100
AcDbLine
 10
654.818946860072
 20
152.8003741389742
 30
0.0
 11
655.8189468654907
 21
149.0801273986907
 31
0.0
  0
LINE
  5
24A4
330
6B
100
AcDbEntity
  8
0
  6
HIDDEN
 62
     2
 48
2.0
100
AcDbLine
 10
655.8189468654907
 20
149.0801273986907
 30
0.0
 11
653.8189468546534
 21
147.0801273878534
 31
0.0
  0
LINE
  5
24A5
330
6B
100
AcDbEntity
  8
0
  6
HIDDEN
 62
     2
 48
2.0
100
AcDbLine
 10
653.8189468546534
 20
147.0801273878534
 30
0.0
 11
655.8189468654907
 21
139.6396339072864
 31
0.0
  0
LINE
  5
24A6
330
6B
100
AcDbEntity
  8
0
  6
HIDDEN
 62
     2
 48
2.0
100
AcDbLine
 10
655.8189468654907
 20
139.6396339072864
 30
0.0
 11
653.8189468546534
 21
137.6396338964492
 31
0.0
  0
LINE
  5
24A7
330
6B
100
AcDbEntity
  8
0
  6
HIDDEN
 62
     2
 48
2.0
100
AcDbLine
 10
653.8189468546534
 20
137.6396338964492
 30
0.0
 11
654.818946860072
 21
133.9193871561656
 31
0.0
  0
LINE
  5
24A8
330
6B
100
AcDbEntity
  8
0
  6
CENTER
 62
     2
 48
0.75
100
AcDbLine
 10
714.0294062221128
 20
141.7128740788955
 30
0.0
 11
661.814667616202
 21
141.7128740788955
 31
0.0
  0
LINE
  5
24A9
330
6B
100
AcDbEntity
  8
0
 62
   255
100
AcDbLine
 10
754.752478406013
 20
144.4628740788955
 30
0.0
 11
754.7452176405593
 21
144.576965053025
 31
0.0
  0
ARC
  5
24AA
330
6B
100
AcDbEntity
  8
0
 62
   255
100
AcDbCircle
 10
753.8524784165963
 20
144.4628740937966
 30
0.0
 40
0.9000000048767569
100
AcDbArc
 50
172.7171516385193
 51
218.5155690524803
  0
LWPOLYLINE
  5
24AB
330
6B
100
AcDbEntity
  8
0
 62
   255
100
AcDbPolyline
 90
        3
 70
   128
 43
0.0
 10
754.556673479782
 20
143.9024195172775
 10
754.6917034376776
 20
144.1377565840855
 10
754.752478406013
 20
144.4628740788955
  0
ARC
  5
24AC
330
6B
100
AcDbEntity
  8
0
 62
   255
100
AcDbCircle
 10
756.2340482899086
 20
140.3378740714449
 30
0.0
 40
0.9000000048767622
100
AcDbArc
 50
201.4844309475195
 51
247.2828483614757
  0
ARC
  5
24AD
330
6B
100
AcDbEntity
  8
0
 62
   255
100
AcDbCircle
 10
756.2340482899086
 20
140.3378740714449
 30
0.0
 40
0.9000000048767514
100
AcDbArc
 50
52.71715163850989
 51
98.51556905247003
  0
LINE
  5
24AE
330
6B
100
AcDbEntity
  8
0
 62
   255
100
AcDbLine
 10
752.9524784271796
 20
138.9628740788955
 30
0.0
 11
752.9597391926333
 21
138.8487831047659
 31
0.0
  0
ARC
  5
24AF
330
6B
100
AcDbEntity
  8
0
 62
   255
100
AcDbCircle
 10
753.8524784165963
 20
138.9628740639943
 30
0.0
 40
0.9000000048767603
100
AcDbArc
 50
352.7171516385193
 51
38.51556905248031
  0
LWPOLYLINE
  5
24B0
330
6B
100
AcDbEntity
  8
0
 62
   255
100
AcDbPolyline
 90
        3
 70
   128
 43
0.0
 10
753.14828335341
 20
139.5233286405135
 10
753.0132533955143
 20
139.2879915737055
 10
752.9524784271796
 20
138.9628740788955
  0
ARC
  5
24B1
330
6B
100
AcDbEntity
  8
0
 62
   255
100
AcDbCircle
 10
756.2340482899086
 20
143.0878740863461
 30
0.0
 40
0.9000000048767514
100
AcDbArc
 50
261.4844309475166
 51
307.2828483614809
  0
ARC
  5
24B2
330
6B
100
AcDbEntity
  8
0
 62
   255
100
AcDbCircle
 10
756.2340482899086
 20
143.0878740863461
 30
0.0
 40
0.9000000048767443
100
AcDbArc
 50
112.7171516385097
 51
158.5155690524819
  0
ARC
  5
24B3
330
6B
100
AcDbEntity
  8
0
 62
   255
100
AcDbCircle
 10
751.4709085432846
 20
143.0878740863461
 30
0.0
 40
0.9000000048767603
100
AcDbArc
 50
21.48443094751653
 51
67.28284836147574
  0
ARC
  5
24B4
330
6B
100
AcDbEntity
  8
0
 62
   255
100
AcDbCircle
 10
751.4709085432846
 20
143.0878740863461
 30
0.0
 40
0.9000000048767569
100
AcDbArc
 50
232.71715163852
 51
278.5155690524835
  0
ARC
  5
24B5
330
6B
100
AcDbEntity
  8
0
 62
   255
100
AcDbCircle
 10
751.4709085432846
 20
140.3378740714449
 30
0.0
 40
0.9000000048767569
100
AcDbArc
 50
81.48443094751661
 51
127.28284836148
  0
ARC
  5
24B6
330
6B
100
AcDbEntity
  8
0
 62
   255
100
AcDbCircle
 10
751.4709085432846
 20
140.3378740714449
 30
0.0
 40
0.9000000048767443
100
AcDbArc
 50
292.7171516385243
 51
338.515569052482
  0
CIRCLE
  5
24B7
330
6B
100
AcDbEntity
  8
0
 62
   255
100
AcDbCircle
 10
759.7033080612531
 20
136.2568871688316
 30
0.0
 40
0.5000000027093027
  0
CIRCLE
  5
24B8
330
6B
100
AcDbEntity
  8
0
 62
   255
100
AcDbCircle
 10
759.7033080612531
 20
136.2568871688316
 30
0.0
 40
0.7500000040639541
  0
CIRCLE
  5
24B9
330
6B
100
AcDbEntity
  8
0
 62
   255
100
AcDbCircle
 10
760.780681684413
 20
137.712874057221
 30
0.0
 40
0.5000000027093167
  0
CIRCLE
  5
24BA
330
6B
100
AcDbEntity
  8
0
 62
   255
100
AcDbCircle
 10
760.780681684413
 20
137.712874057221
 30
0.0
 40
0.750000004063941
  0
CIRCLE
  5
24BB
330
6B
100
AcDbEntity
  8
0
 62
   255
100
AcDbCircle
 10
761.5029165057555
 20
139.3739004284396
 30
0.0
 40
0.5000000027092933
  0
CIRCLE
  5
24BC
330
6B
100
AcDbEntity
  8
0
 62
   255
100
AcDbCircle
 10
761.5029165057555
 20
139.3739004284396
 30
0.0
 40
0.7500000040639942
  0
CIRCLE
  5
24BD
330
6B
100
AcDbEntity
  8
0
 62
   255
100
AcDbCircle
 10
751.3717422008011
 20
150.3642293892186
 30
0.0
 40
0.3000000016255768
  0
CIRCLE
  5
24BE
330
6B
100
AcDbEntity
  8
0
 62
   255
100
AcDbCircle
 10
751.3717422008011
 20
150.3642293892186
 30
0.0
 40
0.5000000027092936
  0
CIRCLE
  5
24BF
330
6B
100
AcDbEntity
  8
0
 62
   255
100
AcDbCircle
 10
752.5999205011687
 20
150.6252867458624
 30
0.0
 40
0.30000000162558
  0
CIRCLE
  5
24C0
330
6B
100
AcDbEntity
  8
0
 62
   255
100
AcDbCircle
 10
752.5999205011687
 20
150.6252867458624
 30
0.0
 40
0.5000000027093112
  0
CIRCLE
  5
24C1
330
6B
100
AcDbEntity
  8
0
 62
   255
100
AcDbCircle
 10
753.8524784165963
 20
150.7128741276629
 30
0.0
 40
0.3000000016255902
  0
CIRCLE
  5
24C2
330
6B
100
AcDbEntity
  8
0
 62
   255
100
AcDbCircle
 10
753.8524784165963
 20
150.7128741276629
 30
0.0
 40
0.5000000027093092
  0
CIRCLE
  5
24C3
330
6B
100
AcDbEntity
  8
0
 62
   255
100
AcDbCircle
 10
755.1050363320239
 20
150.6252867458624
 30
0.0
 40
0.3000000016255602
  0
CIRCLE
  5
24C4
330
6B
100
AcDbEntity
  8
0
 62
   255
100
AcDbCircle
 10
755.1050363320239
 20
150.6252867458624
 30
0.0
 40
0.5000000027093248
  0
CIRCLE
  5
24C5
330
6B
100
AcDbEntity
  8
0
 62
   255
100
AcDbCircle
 10
754.8266901285956
 20
148.6447505976475
 30
0.0
 40
0.3000000016256214
  0
CIRCLE
  5
24C6
330
6B
100
AcDbEntity
  8
0
 62
   255
100
AcDbCircle
 10
754.8266901285956
 20
148.6447505976475
 30
0.0
 40
0.5000000027093027
  0
CIRCLE
  5
24C7
330
6B
100
AcDbEntity
  8
0
 62
   255
100
AcDbCircle
 10
752.878266704597
 20
148.6447505976475
 30
0.0
 40
0.3000000016255646
  0
CIRCLE
  5
24C8
330
6B
100
AcDbEntity
  8
0
 62
   255
100
AcDbCircle
 10
752.878266704597
 20
148.6447505976475
 30
0.0
 40
0.5000000027093027
  0
CIRCLE
  5
24C9
330
6B
100
AcDbEntity
  8
0
 62
   255
100
AcDbCircle
 10
756.3332146323914
 20
150.3642293892186
 30
0.0
 40
0.3000000016255646
  0
CIRCLE
  5
24CA
330
6B
100
AcDbEntity
  8
0
 62
   255
100
AcDbCircle
 10
756.3332146323914
 20
150.3642293892186
 30
0.0
 40
0.5000000027093027
  0
CIRCLE
  5
24CB
330
6B
100
AcDbEntity
  8
0
 62
   255
100
AcDbCircle
 10
753.8524784165963
 20
141.7128740788955
 30
0.0
 40
2.150000011650007
  0
CIRCLE
  5
24CC
330
6B
100
AcDbEntity
  8
0
 62
   255
100
AcDbCircle
 10
753.8524784165963
 20
141.7128740788955
 30
0.0
 40
2.300000012462774
  0
CIRCLE
  5
24CD
330
6B
100
AcDbEntity
  8
0
 62
   255
100
AcDbCircle
 10
753.8524784165963
 20
141.7128740788955
 30
0.0
 40
1.650000008940704
  0
CIRCLE
  5
24CE
330
6B
100
AcDbEntity
  8
0
 62
   255
100
AcDbCircle
 10
753.8524784165963
 20
141.7128740788955
 30
0.0
 40
1.500000008127908
  0
CIRCLE
  5
24CF
330
6B
100
AcDbEntity
  8
0
 62
   255
100
AcDbCircle
 10
753.8524784165963
 20
141.7128740788955
 30
0.0
 40
5.000000027093026
  0
CIRCLE
  5
24D0
330
6B
100
AcDbEntity
  8
0
 62
   255
100
AcDbCircle
 10
753.8524784165963
 20
141.7128740788955
 30
0.0
 40
3.000000016255816
  0
CIRCLE
  5
24D1
330
6B
100
AcDbEntity
  8
0
 62
   255
100
AcDbCircle
 10
753.8524784165963
 20
141.7128740788955
 30
0.0
 40
11.00000005960466
  0
ARC
  5
24D2
330
6B
100
AcDbEntity
  8
0
 62
   255
100
AcDbCircle
 10
753.8524784165963
 20
141.7128740788955
 30
0.0
 40
9.500000051476744
100
AcDbArc
 50
71.9999999999914
 51
107.9999999999947
  0
ARC
  5
24D3
330
6B
100
AcDbEntity
  8
0
 62
   255
100
AcDbCircle
 10
751.3803424482012
 20
149.3213262504839
 30
0.0
 40
1.500000008127908
100
AcDbArc
 50
107.9999999999947
 51
288.0000000000086
  0
ARC
  5
24D4
330
6B
100
AcDbEntity
  8
0
 62
   255
100
AcDbCircle
 10
753.8524784165963
 20
141.7128740788955
 30
0.0
 40
6.500000035220939
100
AcDbArc
 50
71.9999999999914
 51
107.9999999999947
  0
ARC
  5
24D5
330
6B
100
AcDbEntity
  8
0
 62
   255
100
AcDbCircle
 10
756.3246143849912
 20
149.3213262504839
 30
0.0
 40
1.500000008127917
100
AcDbArc
 50
251.9999999999914
 51
71.9999999999914
  0
ARC
  5
24D6
330
6B
100
AcDbEntity
  8
0
 62
   255
100
AcDbCircle
 10
753.8524784165963
 20
141.7128740788955
 30
0.0
 40
6.7500000365756
100
AcDbArc
 50
315.0000000000046
 51
345.000000000003
  0
ARC
  5
24D7
330
6B
100
AcDbEntity
  8
0
 62
   255
100
AcDbCircle
 10
759.5093326967409
 20
136.0560197987508
 30
0.0
 40
1.250000006773266
100
AcDbArc
 50
134.9999999999954
 51
315.0000000000046
  0
ARC
  5
24D8
330
6B
100
AcDbEntity
  8
0
 62
   255
100
AcDbCircle
 10
753.8524784165963
 20
141.7128740788955
 30
0.0
 40
9.250000050122094
100
AcDbArc
 50
315.0000000000046
 51
345.000000000003
  0
ARC
  5
24D9
330
6B
100
AcDbEntity
  8
0
 62
   255
100
AcDbCircle
 10
761.5798850687806
 20
139.6423217068558
 30
0.0
 40
1.250000006773259
100
AcDbArc
 50
345.000000000003
 51
165.000000000003
  0
ARC
  5
24DA
330
6B
100
AcDbEntity
  8
0
 62
   255
100
AcDbCircle
 10
753.8524784165963
 20
141.7128740788955
 30
0.0
 40
2.500000013546511
100
AcDbArc
 50
108.9792599284757
 51
131.020740071521
  0
LWPOLYLINE
  5
24DB
330
6B
100
AcDbEntity
  8
0
 62
   255
100
AcDbPolyline
 90
        3
 70
   128
 43
0.0
 10
751.3985833504046
 20
142.1907848799937
 10
751.3525629764532
 20
141.692322425278
 10
751.3985833504046
 20
141.2349632777972
  0
ARC
  5
24DC
330
6B
100
AcDbEntity
  8
0
 62
   255
100
AcDbCircle
 10
753.8524784165963
 20
141.7128740788955
 30
0.0
 40
2.500000013546523
100
AcDbArc
 50
228.979259928479
 51
251.0207400715243
  0
ARC
  5
24DD
330
6B
100
AcDbEntity
  8
0
 62
   255
100
AcDbCircle
 10
753.8524784165963
 20
141.7128740788955
 30
0.0
 40
2.500000013546514
100
AcDbArc
 50
288.9792599284758
 51
311.0207400715232
  0
ARC
  5
24DE
330
6B
100
AcDbEntity
  8
0
 62
   255
100
AcDbCircle
 10
753.8524784165963
 20
141.7128740788955
 30
0.0
 40
2.500000013546515
100
AcDbArc
 50
348.9792599284797
 51
11.02074007152022
  0
ARC
  5
24DF
330
6B
100
AcDbEntity
  8
0
 62
   255
100
AcDbCircle
 10
753.8524784165963
 20
141.7128740788955
 30
0.0
 40
2.500000013546513
100
AcDbArc
 50
48.97925992847682
 51
71.02074007152427
  0
LINE
  5
24E0
330
6B
100
AcDbEntity
  8
0
 62
   255
100
AcDbLine
 10
753.8024784175883
 20
148.2126819301141
 30
0.0
 11
753.8024784175883
 21
148.2621104790458
 31
0.0
  0
LINE
  5
24E1
330
6B
100
AcDbEntity
  8
0
 62
   255
100
AcDbLine
 10
753.8024784175883
 20
148.2621104790458
 30
0.0
 11
753.1392247861315
 21
148.2182521704631
 31
0.0
  0
LWPOLYLINE
  5
24E2
330
6B
100
AcDbEntity
  8
0
 62
   255
100
AcDbPolyline
 90
        3
 70
   128
 43
0.0
 10
752.7518001809276
 20
148.1610088937655
 10
751.9961571704186
 20
147.9793274162476
 10
751.5694717305466
 20
147.8332974327405
  0
LINE
  5
24E3
330
6B
100
AcDbEntity
  8
0
 62
   255
100
AcDbLine
 10
754.0024784245336
 20
148.2621104790458
 30
0.0
 11
754.0024784245336
 21
148.2111429195512
 31
0.0
  0
LWPOLYLINE
  5
24E4
330
6B
100
AcDbEntity
  8
0
 62
   255
100
AcDbPolyline
 90
        3
 70
   128
 43
0.0
 10
756.2634222823978
 20
147.8225751158808
 10
755.8087997262727
 20
147.9793274162476
 10
754.9895867319524
 20
148.1720301651732
  0
LINE
  5
24E5
330
6B
100
AcDbEntity
  8
0
 62
   255
100
AcDbLine
 10
754.5456318356932
 20
148.2312217687075
 30
0.0
 11
754.0024784245336
 21
148.2621104790458
 31
0.0
  0
CIRCLE
  5
24E6
330
6B
100
AcDbEntity
  8
0
 62
   255
100
AcDbCircle
 10
753.8524784165963
 20
141.7128740788955
 30
0.0
 40
1.326794926432476
  0
LINE
  5
24E7
330
6B
100
AcDbEntity
  8
0
 62
   255
100
AcDbLine
 10
754.2913403753284
 20
150.9524574051733
 30
0.0
 11
754.7037889197556
 21
150.9236162075264
 31
0.0
  0
LWPOLYLINE
  5
24E8
330
6B
100
AcDbEntity
  8
0
 62
   255
100
AcDbPolyline
 90
        3
 70
   128
 43
0.0
 10
755.572970921143
 20
150.8014611440101
 10
755.910797011044
 20
150.730957230762
 10
755.9773914649333
 20
150.7154982072622
  0
LWPOLYLINE
  5
24E9
330
6B
100
AcDbEntity
  8
0
 62
   255
100
AcDbPolyline
 90
        3
 70
   128
 43
0.0
 10
756.8211138427527
 20
150.4735648154531
 10
756.907559670258
 20
150.4437950891942
 10
757.5445689479242
 20
150.1940870164901
  0
LWPOLYLINE
  5
24EA
330
6B
100
AcDbEntity
  8
0
 62
   255
100
AcDbPolyline
 90
        3
 70
   128
 43
0.0
 10
750.1603878852683
 20
150.1940870164901
 10
750.7973971629344
 20
150.4437950891942
 10
750.8838429904399
 20
150.4735648154531
  0
LWPOLYLINE
  5
24EB
330
6B
100
AcDbEntity
  8
0
 62
   255
100
AcDbPolyline
 90
        3
 70
   128
 43
0.0
 10
751.7275653682588
 20
150.7154982072622
 10
751.7941598221479
 20
150.730957230762
 10
752.1319859120496
 20
150.8014611440101
  0
LINE
  5
24EC
330
6B
100
AcDbEntity
  8
0
 62
   255
100
AcDbLine
 10
753.0011679134363
 20
150.9236162075264
 30
0.0
 11
753.4136164578637
 21
150.9524574051733
 31
0.0
  0
LINE
  5
24ED
330
6B
100
AcDbEntity
  8
0
  6
CENTER
 62
     2
 48
0.75
100
AcDbLine
 10
751.3803424482012
 20
149.3213262504839
 30
0.0
 11
753.8524784165963
 21
141.7128740788955
 31
0.0
  0
LINE
  5
24EE
330
6B
100
AcDbEntity
  8
0
  6
CENTER
 62
     2
 48
0.75
100
AcDbLine
 10
753.8524784165963
 20
141.7128740788955
 30
0.0
 11
756.3246143849912
 21
149.3213262504839
 31
0.0
  0
LINE
  5
24EF
330
6B
100
AcDbEntity
  8
0
  6
CENTER
 62
     2
 48
0.75
100
AcDbLine
 10
761.5798850687806
 20
139.6423217068558
 30
0.0
 11
753.8524784165963
 21
141.7128740788955
 31
0.0
  0
LINE
  5
24F0
330
6B
100
AcDbEntity
  8
0
  6
CENTER
 62
     2
 48
0.75
100
AcDbLine
 10
753.8524784165963
 20
141.7128740788955
 30
0.0
 11
759.5093326967409
 21
136.0560197987508
 31
0.0
  0
LINE
  5
24F1
330
6B
100
AcDbEntity
  8
0
  6
CENTER
 62
     2
 48
0.75
100
AcDbLine
 10
760.7806816844134
 20
137.712874057221
 30
0.0
 11
753.8524784165963
 21
141.7128740788955
 31
0.0
  0
DIMENSION
  5
24F2
330
6B
100
AcDbEntity
  8
CENTRE
  6
ByBlock
 62
   255
100
AcDbDimension
  2
*D31
 10
753.8524784165963
 20
141.7128740788955
 30
0.0
 11
756.0499452896192
 21
157.1180494259344
 31
0.0
 70
   162
 71
     5
 42
0.6283185307179533
 73
     0
 74
     0
 75
     0
  3
DMST_1
100
AcDb2LineAngularDimension
 13
753.8524784165963
 23
141.7128740788955
 33
0.0
 14
756.3246143849912
 24
149.3213262504839
 34
0.0
 15
751.3803424482012
 25
149.3213262504839
 35
0.0
 16
752.2258990189234
 26
157.1887432820813
 36
0.0
1001
ACAD
1000
DSTYLE
1002
{
1070
    41
1040
1.5
1070
    71
1070
     0
1070
   140
1040
1.5
1070
   147
1040
0.35
1070
   279
1070
     0
1002
}
  0
DIMENSION
  5
24F3
330
6B
100
AcDbEntity
  8
CENTRE
  6
ByBlock
 62
   255
100
AcDbDimension
  2
*D32
 10
753.8524784165963
 20
141.7128740788955
 30
0.0
 11
766.3504298637918
 21
132.1839523581049
 31
0.0
 70
   162
 71
     5
 42
0.5235987755982912
 73
     0
 74
     0
 75
     0
  3
DMST_1
100
AcDb2LineAngularDimension
 13
753.8524784165963
 23
141.7128740788955
 33
0.0
 14
759.5093326967409
 24
136.0560197987508
 34
0.0
 15
761.5798850687806
 25
139.6423217068558
 35
0.0
 16
769.5361783207747
 26
134.399444705372
 36
0.0
1001
ACAD
1000
DSTYLE
1002
{
1070
    41
1040
1.5
1070
    71
1070
     0
1070
   140
1040
1.5
1070
   147
1040
0.35
1002
}
  0
DIMENSION
  5
24F4
102
{ACAD_XDICTIONARY
360
24F5
102
}
330
6B
100
AcDbEntity
  8
CENTRE
  6
ByBlock
 62
   255
100
AcDbDimension
  2
*D40
 10
753.8524784165963
 20
129.7128740138722
 30
0.0
 11
773.4340766992492
 21
153.0183151185486
 31
0.0
 70
    34
 71
     5
 42
2.094395102393168
 73
     0
 74
     0
 75
     0
  3
DMST_1
100
AcDb2LineAngularDimension
 13
760.7806816844134
 23
137.712874057221
 33
0.0
 14
753.8524784165963
 24
141.7128740788955
 34
0.0
 15
753.8524784165963
 25
153.2331992637034
 35
0.0
 16
775.0365618624279
 26
145.4481995519755
 36
0.0
1001
ACAD
1000
DSTYLE
1002
{
1070
    41
1040
1.5
1070
    71
1070
     0
1070
   140
1040
1.5
1070
   147
1040
0.35
1070
   279
1070
     0
1002
}
  0
DIMENSION
  5
24F7
330
6B
100
AcDbEntity
  8
CENTRE
  6
ByBlock
 62
   255
100
AcDbDimension
  2
*D33
 10
753.8524784165945
 20
141.712874078895
 30
0.0
 11
758.6713539280141
 21
129.4594074750961
 31
0.0
 70
   164
  1
<>
 71
     5
 42
8.000000043348535
 73
     0
 74
     0
 75
     0
  3
DMST_1
100
AcDbRadialDimension
 15
756.7803361354677
 25
134.2678992722479
 35
0.0
 40
0.0
1001
ACAD
1000
DSTYLE
1002
{
1070
    41
1040
1.5
1070
    71
1070
     0
1070
   140
1040
1.5
1070
   147
1040
0.35
1070
   279
1070
     0
1002
}
  0
DIMENSION
  5
24F8
330
6B
100
AcDbEntity
  8
CENTRE
  6
ByBlock
 62
   255
100
AcDbDimension
  2
*D34
 10
757.5108074059933
 20
145.1211917396003
 30
0.0
 11
742.6639101436742
 21
131.2889360041238
 31
0.0
 70
   163
  1
<>
 71
     5
 42
10.00000005418565
 73
     0
 74
     0
 75
     0
  3
DMST_1
100
AcDbDiametricDimension
 15
750.1941494272012
 25
138.3045564181906
 35
0.0
 40
0.0
1001
ACAD
1000
DSTYLE
1002
{
1070
    47
1040
0.02
1070
    48
1040
0.02
1070
   272
1070
     2
1070
    41
1040
1.5
1070
   140
1040
1.5
1070
   147
1040
0.35
1070
   279
1070
     0
1002
}
  0
DIMENSION
  5
24F9
330
6B
100
AcDbEntity
  8
CENTRE
  6
ByBlock
 62
   255
100
AcDbDimension
  2
*D35
 10
751.3803424482023
 20
149.3213262504841
 30
0.0
 11
746.0448564239284
 21
153.0660844521882
 31
0.0
 70
    36
  1
<>
 71
     5
 42
1.500000008128495
 73
     0
 74
     0
 75
     0
  3
DMST_1
100
AcDbRadialDimension
 15
750.0247587676293
 25
149.9635045040476
 35
0.0
 40
0.0
1001
ACAD
1000
DSTYLE
1002
{
1070
    72
1070
     0
1070
    71
1070
     0
1070
    41
1040
1.5
1070
   140
1040
1.5
1070
   147
1040
0.35
1070
   279
1070
     0
1002
}
  0
DIMENSION
  5
24FA
330
6B
100
AcDbEntity
  8
CENTRE
  6
ByBlock
 62
   255
100
AcDbDimension
  2
*D36
 10
761.57988506878
 20
139.6423217068557
 30
0.0
 11
766.5393445714896
 21
148.2269269413573
 31
0.0
 70
   164
  1
<>
 71
     5
 42
1.250000006773063
 73
     0
 74
     0
 75
     0
  3
DMST_1
100
AcDbRadialDimension
 15
762.2051815320402
 25
140.7246822521301
 35
0.0
 40
0.0
1001
ACAD
1000
DSTYLE
1002
{
1070
    41
1040
1.5
1070
    71
1070
     0
1070
   140
1040
1.5
1070
   147
1040
0.35
1070
   279
1070
     0
1002
}
  0
MTEXT
  5
24FD
330
6B
100
AcDbEntity
  8
CENTRE
  6
ByBlock
 62
     3
100
AcDbMText
 10
656.2693882742264
 20
120.0209138365777
 30
0.0
 40
1.100000005960465
 41
0.0
 46
0.0
 71
     1
 72
     1
  1
{\fISOCPEUR|b0|i0|c0|p34;\W1;+20\P 0}
  7
SLDTEXTSTYLE0
 73
     1
 44
0.8181818137484137
  0
TOLERANCE
  5
24FE
330
6B
100
AcDbEntity
  8
0
100
AcDbFcf
  3
DMST_1
 10
698.5404463589983
 20
160.3206702047327
 30
0.0
  1
{\Fgdt;h}%%v0.02%%v%%v%%v%%v
1001
ACAD
1000
DSTYLE
1002
{
1070
    41
1040
2.5
1070
    42
1040
0.5
1070
    44
1040
1.0
1070
    71
1070
     0
1070
   140
1040
1.500000008127908
1070
   144
1040
0.5
1070
   146
1040
1.0
1070
   147
1040
0.5000000027093027
1070
   271
1070
     2
1070
   272
1070
     2
1070
   289
1070
     0
1002
}
  0
LEADER
  5
24FF
102
{ACAD_XDICTIONARY
360
2500
102
}
102
{ACAD_REACTORS
330
2501
102
}
330
6B
100
AcDbEntity
  8
0
100
AcDbLeader
  3
DMST_1
 76
     3
 10
709.3649286165398
 20
143.2128741000619
 30
0.0
 10
709.3649286165398
 20
160.3206702047327
 30
0.0
 10
707.0725892623735
 20
160.3206702047327
 30
0.0
1001
ACAD
1000
DSTYLE
1002
{
1070
    41
1040
1.5
1002
}
  0
LINE
  5
2502
330
6B
100
AcDbEntity
  8
CENTRE
  6
ByBlock
 62
     2
100
AcDbLine
 10
719.1262885021219
 20
140.2128740707675
 30
0.0
 11
719.1262885021219
 21
133.6019156834708
 31
0.0
  0
SOLID
  5
2503
330
6B
100
AcDbEntity
  8
CENTRE
  6
ByBlock
 62
     2
100
AcDbTrace
 10
719.7629421514051
 20
140.2128740707675
 30
0.0
 11
718.489634852839
 21
140.2128740707675
 31
0.0
 12
719.1262885021219
 22
139.0987301845221
 32
0.0
 13
719.1262885021219
 23
139.0987301845221
 33
0.0
  0
TOLERANCE
  5
2504
330
6B
100
AcDbEntity
  8
0
 62
     2
100
AcDbFcf
  3
DMST_1
 10
717.8512884952132
 20
132.1019156753429
 30
0.0
  1
%%v%%v%%vA%%v%%v
1001
ACAD
1000
DSTYLE
1002
{
1070
    41
1040
2.5
1070
    42
1040
0.5
1070
    44
1040
1.0
1070
    71
1070
     0
1070
   140
1040
1.500000008127908
1070
   144
1040
0.5
1070
   146
1040
1.0
1070
   147
1040
0.5000000027093027
1070
   271
1070
     2
1070
   272
1070
     2
1070
   289
1070
     0
1002
}
  0
MTEXT
  5
2505
330
6B
100
AcDbEntity
  8
0
 62
     3
100
AcDbMText
 10
661.8639594068683
 20
182.3079556677008
 30
0.0
 40
1.750000009482559
 41
0.0
 46
0.0
 71
     1
 72
     1
  1
Insulation: PVC, 600V, 105°C\PAWG22 for Grey, Violet & Blue\PAWG26 for Green, Yellow, Orange, Red, Brown, Black & White
 73
     1
 44
1.0
  0
LEADER
  5
2506
330
6B
100
AcDbEntity
  8
0
100
AcDbLeader
  3
DMST_1
 74
     0
 76
     3
 10
649.9636070712378
 20
151.2128738248984
 30
0.0
 10
649.9636070712378
 20
181.508585034016
 30
0.0
 10
660.3947198783294
 20
181.508585034016
 30
0.0
1001
ACAD
1000
DSTYLE
1002
{
1070
    41
1040
1.5
1002
}
  0
LINE
  5
2507
330
6B
100
AcDbEntity
  8
0
  6
CENTER
 62
     2
 48
0.75
100
AcDbLine
 10
765.7587131276875
 20
141.7128740788955
 30
0.0
 11
741.9462437055041
 21
141.7128740788955
 31
0.0
  0
LINE
  5
2508
330
6B
100
AcDbEntity
  8
0
  6
CENTER
 62
     2
 48
0.75
100
AcDbLine
 10
753.8524784165963
 20
153.6191087899872
 30
0.0
 11
753.8524784165963
 21
129.8066393678036
 31
0.0
  0
ARC
  5
2509
330
6B
100
AcDbEntity
  8
0
  6
CENTER
 62
     2
 48
0.75
100
AcDbCircle
 10
753.8524784165947
 20
141.7128740788953
 30
0.0
 40
8.000000043348327
100
AcDbArc
 50
288.7079586073827
 51
118.7587579822226
  0
ARC
  5
250A
330
6B
100
AcDbEntity
  8
0
 62
   255
100
AcDbCircle
 10
612.5630882513907
 20
138.7216574212512
 30
0.0
 40
0.7940000043023716
100
AcDbArc
 50
205.7142857142904
 51
261.2572663343411
  0
ARC
  5
250B
330
6B
100
AcDbEntity
  8
0
 62
   255
100
AcDbCircle
 10
612.5630882513907
 20
138.7216574212512
 30
0.0
 40
0.7940000043023828
100
AcDbArc
 50
330.1713050942354
 51
106.3056204188664
  0
ARC
  5
250C
330
6B
100
AcDbEntity
  8
0
 62
   255
100
AcDbCircle
 10
612.5630882513907
 20
138.7216574212512
 30
0.0
 40
0.7940000043023812
100
AcDbArc
 50
125.1229510097024
 51
205.7142857142904
  0
ARC
  5
250D
330
6B
100
AcDbEntity
  8
0
 62
   255
100
AcDbCircle
 10
607.885833543732
 20
140.9741045741573
 30
0.0
 40
0.7940000043023799
100
AcDbArc
 50
102.857142857141
 51
158.4001234771908
  0
ARC
  5
250E
330
6B
100
AcDbEntity
  8
0
 62
   255
100
AcDbCircle
 10
607.885833543732
 20
140.9741045741573
 30
0.0
 40
0.7940000043023728
100
AcDbArc
 50
227.3141622370948
 51
3.448477561733591
  0
ARC
  5
250F
330
6B
100
AcDbEntity
  8
0
 62
   255
100
AcDbCircle
 10
607.885833543732
 20
140.9741045741573
 30
0.0
 40
0.7940000043023799
100
AcDbArc
 50
22.26580815255668
 51
102.857142857141
  0
ARC
  5
2510
330
6B
100
AcDbEntity
  8
0
 62
   255
100
AcDbCircle
 10
609.6821002080387
 20
138.7216574212511
 30
0.0
 40
0.7940000043023772
100
AcDbArc
 50
154.2857142857095
 51
209.8286949057646
  0
ARC
  5
2511
330
6B
100
AcDbEntity
  8
0
 62
   255
100
AcDbCircle
 10
609.6821002080387
 20
138.7216574212511
 30
0.0
 40
0.7940000043023847
100
AcDbArc
 50
278.7427336656589
 51
54.87704899029753
  0
ARC
  5
2512
330
6B
100
AcDbEntity
  8
0
 62
   255
100
AcDbCircle
 10
609.6821002080387
 20
138.7216574212511
 30
0.0
 40
0.7940000043023786
100
AcDbArc
 50
73.69437958113358
 51
154.2857142857095
  0
ARC
  5
2513
330
6B
100
AcDbEntity
  8
0
 62
   255
100
AcDbCircle
 10
608.5269136938556
 20
143.7828602322829
 30
0.0
 40
0.7940000043023682
100
AcDbArc
 50
51.42857142856758
 51
106.9715520486203
  0
ARC
  5
2514
330
6B
100
AcDbEntity
  8
0
 62
   255
100
AcDbCircle
 10
608.5269136938556
 20
143.7828602322829
 30
0.0
 40
0.7940000043023732
100
AcDbArc
 50
175.8855908085204
 51
312.0199061331615
  0
ARC
  5
2515
330
6B
100
AcDbEntity
  8
0
 62
   255
100
AcDbCircle
 10
608.5269136938556
 20
143.7828602322829
 30
0.0
 40
0.7940000043023743
100
AcDbArc
 50
330.8372367239801
 51
51.42857142856758
  0
ARC
  5
2516
330
6B
100
AcDbEntity
  8
0
 62
   255
100
AcDbCircle
 10
614.3593549156969
 20
140.9741045741574
 30
0.0
 40
0.7940000043023636
100
AcDbArc
 50
257.1428571428589
 51
312.6858377629144
  0
ARC
  5
2517
330
6B
100
AcDbEntity
  8
0
 62
   255
100
AcDbCircle
 10
614.3593549156969
 20
140.9741045741574
 30
0.0
 40
0.7940000043023807
100
AcDbArc
 50
21.59987652280918
 51
157.7341918474433
  0
ARC
  5
2518
330
6B
100
AcDbEntity
  8
0
 62
   255
100
AcDbCircle
 10
614.3593549156969
 20
140.9741045741574
 30
0.0
 40
0.7940000043023786
100
AcDbArc
 50
176.551522438268
 51
257.1428571428589
  0
ARC
  5
2519
330
6B
100
AcDbEntity
  8
0
 62
   255
100
AcDbCircle
 10
613.7182747655738
 20
143.7828602322829
 30
0.0
 40
0.7940000043023757
100
AcDbArc
 50
308.5714285714324
 51
4.11440919148118
  0
ARC
  5
251A
330
6B
100
AcDbEntity
  8
0
 62
   255
100
AcDbCircle
 10
613.7182747655738
 20
143.7828602322829
 30
0.0
 40
0.7940000043023782
100
AcDbArc
 50
73.02844795136625
 51
209.1627632760142
  0
ARC
  5
251B
330
6B
100
AcDbEntity
  8
0
 62
   255
100
AcDbCircle
 10
613.7182747655738
 20
143.7828602322829
 30
0.0
 40
0.7940000043023748
100
AcDbArc
 50
227.9800938668385
 51
308.5714285714324
  0
ARC
  5
251C
330
6B
100
AcDbEntity
  8
0
 62
   255
100
AcDbCircle
 10
611.1225942297148
 20
145.0328740968851
 30
0.0
 40
0.7940000043023728
100
AcDbArc
 50
0.0
 51
55.54298062004677
  0
ARC
  5
251D
330
6B
100
AcDbEntity
  8
0
 62
   255
100
AcDbCircle
 10
611.1225942297148
 20
145.0328740968851
 30
0.0
 40
0.7940000043023677
100
AcDbArc
 50
124.4570193799532
 51
260.5913347045787
  0
ARC
  5
251E
330
6B
100
AcDbEntity
  8
0
 62
   255
100
AcDbCircle
 10
611.1225942297148
 20
145.0328740968851
 30
0.0
 40
0.7940000043023728
100
AcDbArc
 50
279.4086652954081
 51
0.0
  0
CIRCLE
  5
251F
330
6B
100
AcDbEntity
  8
0
 62
   255
100
AcDbCircle
 10
611.1225942297148
 20
141.7128740788954
 30
0.0
 40
1.800000009753483
  0
CIRCLE
  5
2520
330
6B
100
AcDbEntity
  8
0
 62
   255
100
AcDbCircle
 10
611.1225942297148
 20
141.7128740788954
 30
0.0
 40
2.240000012137676
  0
CIRCLE
  5
2521
330
6B
100
AcDbEntity
  8
0
 62
   255
100
AcDbCircle
 10
611.1225942297148
 20
141.7128740788954
 30
0.0
 40
2.540000013763257
  0
CIRCLE
  5
2522
330
6B
100
AcDbEntity
  8
0
 62
     2
100
AcDbCircle
 10
611.1225942297148
 20
141.7128740788954
 30
0.0
 40
4.700000025467443
  0
CIRCLE
  5
2523
330
6B
100
AcDbEntity
  8
0
 62
   255
100
AcDbCircle
 10
611.1225942297148
 20
141.7128740788954
 30
0.0
 40
5.000000027093026
  0
CIRCLE
  5
2524
330
6B
100
AcDbEntity
  8
0
 62
   255
100
AcDbCircle
 10
611.1225942297148
 20
141.7128740788954
 30
0.0
 40
4.000000021674421
  0
CIRCLE
  5
2525
330
6B
100
AcDbEntity
  8
0
 62
   255
100
AcDbCircle
 10
611.1225942297148
 20
150.2128741249535
 30
0.0
 40
0.8000000043348743
  0
CIRCLE
  5
2526
330
6B
100
AcDbEntity
  8
0
 62
   255
100
AcDbCircle
 10
611.1225942297148
 20
141.7128740788954
 30
0.0
 40
11.00000005960466
  0
CIRCLE
  5
2527
330
6B
100
AcDbEntity
  8
0
 62
   255
100
AcDbCircle
 10
603.7613782576592
 20
137.4628740558663
 30
0.0
 40
0.8000000043348743
  0
CIRCLE
  5
2528
330
6B
100
AcDbEntity
  8
0
 62
   255
100
AcDbCircle
 10
618.4838102017697
 20
137.4628740558663
 30
0.0
 40
0.8000000043348743
  0
CIRCLE
  5
2529
330
6B
100
AcDbEntity
  8
0
 62
   255
100
AcDbCircle
 10
611.1225942297148
 20
141.7128740788954
 30
0.0
 40
1.500000008127908
  0
CIRCLE
  5
252A
330
6B
100
AcDbEntity
  8
0
 62
     2
100
AcDbCircle
 10
611.1225942297148
 20
141.7128740788954
 30
0.0
 40
1.326794926432476
  0
LWPOLYLINE
  5
252B
330
6B
100
AcDbEntity
  8
0
 62
   255
100
AcDbPolyline
 90
        3
 70
   128
 43
0.0
 10
611.1225942297148
 20
138.9628740788954
 10
610.5508370790621
 20
139.0229681340094
 10
610.4007293578479
 20
139.0593083410678
  0
ARC
  5
252C
330
6B
100
AcDbEntity
  8
0
 62
   255
100
AcDbCircle
 10
611.1225942297148
 20
141.7128740788954
 30
0.0
 40
2.75000001490116
100
AcDbArc
 50
203.3531924662109
 51
233.7896646766548
  0
ARC
  5
252D
330
6B
100
AcDbEntity
  8
0
 62
   255
100
AcDbCircle
 10
611.1225942297148
 20
141.7128740788954
 30
0.0
 40
2.750000014901158
100
AcDbArc
 50
151.9246210376389
 51
182.0839423346083
  0
ARC
  5
252E
330
6B
100
AcDbEntity
  8
0
 62
   255
100
AcDbCircle
 10
611.1225942297148
 20
141.7128740788954
 30
0.0
 40
2.750000014901155
100
AcDbArc
 50
100.4960496090636
 51
130.9325218195073
  0
ARC
  5
252F
330
6B
100
AcDbEntity
  8
0
 62
   255
100
AcDbCircle
 10
611.1225942297148
 20
141.7128740788954
 30
0.0
 40
2.750000014901155
100
AcDbArc
 50
49.06747818049271
 51
79.50395039093635
  0
ARC
  5
2530
330
6B
100
AcDbEntity
  8
0
 62
   255
100
AcDbCircle
 10
611.1225942297148
 20
141.7128740788954
 30
0.0
 40
2.750000014901161
100
AcDbArc
 50
357.9160576653917
 51
28.07537896236104
  0
ARC
  5
2531
330
6B
100
AcDbEntity
  8
0
 62
   255
100
AcDbCircle
 10
611.1225942297148
 20
141.7128740788954
 30
0.0
 40
2.750000014901163
100
AcDbArc
 50
306.2103353233543
 51
336.646807533789
  0
LWPOLYLINE
  5
2532
330
6B
100
AcDbEntity
  8
0
 62
   255
100
AcDbPolyline
 90
        3
 70
   128
 43
0.0
 10
611.8444591015818
 20
139.0593083410678
 10
611.6943513803674
 20
139.0229681340094
 10
611.1225942297148
 20
138.9628740788954
  0
LINE
  5
2533
330
6B
100
AcDbEntity
  8
0
  6
CENTER
 62
     2
 48
0.75
100
AcDbLine
 10
611.1225942297148
 20
141.7128740788954
 30
0.0
 11
603.7613782576592
 21
137.4628740558663
 31
0.0
  0
ARC
  5
2534
102
{ACAD_REACTORS
330
2542
102
}
330
6B
100
AcDbEntity
  8
0
 62
     2
100
AcDbCircle
 10
611.1225942297148
 20
150.2128741249535
 30
0.0
 40
1.000000005418605
100
AcDbArc
 50
90.0
 51
0.0
  0
ARC
  5
2535
330
6B
100
AcDbEntity
  8
0
 62
     2
100
AcDbCircle
 10
603.7613782576592
 20
137.4628740558663
 30
0.0
 40
1.000000005418605
100
AcDbArc
 50
90.0
 51
0.0
  0
ARC
  5
2536
330
6B
100
AcDbEntity
  8
0
 62
     2
100
AcDbCircle
 10
618.4838102017697
 20
137.4628740558663
 30
0.0
 40
1.000000005418605
100
AcDbArc
 50
90.0
 51
0.0
  0
CIRCLE
  5
2537
102
{ACAD_REACTORS
330
2542
102
}
330
6B
100
AcDbEntity
  8
0
  6
CENTER
 62
     2
 48
0.75
100
AcDbCircle
 10
611.1225942297148
 20
141.7128740788954
 30
0.0
 40
8.500000046058145
  0
DIMENSION
  5
2538
330
6B
100
AcDbEntity
  8
CENTRE
  6
ByBlock
 62
   255
100
AcDbDimension
  2
*D37
 10
603.7613782576592
 20
137.4628740558663
 30
0.0
 11
597.0364364441518
 21
149.0299625270535
 31
0.0
 70
   162
  1
3x <>
 71
     5
 42
2.094395102393173
 73
     0
 74
     0
 75
     0
  3
DMST_1
100
AcDb2LineAngularDimension
 13
611.1225942297148
 23
153.7128741439186
 33
0.0
 14
611.1225942297148
 24
129.7128740138722
 34
0.0
 15
611.1225942297148
 25
141.7128740788954
 35
0.0
 16
600.9194747343165
 26
153.8724783932047
 36
0.0
1001
ACAD
1000
DSTYLE
1002
{
1070
    41
1040
1.5
1070
   147
1040
0.4
1070
    72
1070
     0
1070
    71
1070
     0
1070
   140
1040
1.5
1070
   279
1070
     0
1002
}
  0
DIMENSION
  5
2539
330
6B
100
AcDbEntity
  8
CENTRE
  6
ByBlock
 62
   255
100
AcDbDimension
  2
*D38
 10
619.6225942757729
 20
122.9917151686446
 30
0.0
 11
610.8359050405843
 21
122.9917151686446
 31
0.0
 70
   160
  1
%%c<>
 71
     2
 42
17.00000009211624
 73
     0
 74
     0
 75
     0
  3
DMST_1
100
AcDbAlignedDimension
 13
602.6225941836567
 23
141.7128740788954
 33
0.0
 14
619.6225942757729
 24
141.7128740788954
 34
0.0
100
AcDbRotatedDimension
1001
ACAD
1000
DSTYLE
1002
{
1070
    41
1040
1.5
1070
   147
1040
-1.0
1070
    72
1070
     0
1070
    71
1070
     0
1070
   140
1040
1.5
1070
   279
1070
     0
1002
}
  0
LINE
  5
253A
330
6B
100
AcDbEntity
  8
0
  6
CENTER
 62
     2
 48
0.75
100
AcDbLine
 10
599.1225941646915
 20
141.7128740788954
 30
0.0
 11
623.122594294738
 21
141.7128740788954
 31
0.0
  0
LINE
  5
253B
330
6B
100
AcDbEntity
  8
0
  6
CENTER
 62
     2
 48
0.75
100
AcDbLine
 10
611.1225942297148
 20
153.7128741439186
 30
0.0
 11
611.1225942297148
 21
129.7128740138722
 31
0.0
  0
LINE
  5
253C
330
6B
100
AcDbEntity
  8
CENTRE
  6
ByBlock
 62
     2
100
AcDbLine
 10
596.3034531728616
 20
148.3413450503541
 30
0.0
 11
598.9291757680629
 21
152.2093168819349
 31
0.0
  0
LINE
  5
253D
330
6B
100
AcDbEntity
  8
CENTRE
  6
ByBlock
 62
     2
100
AcDbLine
 10
598.9291757680629
 20
152.2093168819349
 30
0.0
 11
596.6538982200741
 21
153.7538595849946
 31
0.0
  0
LINE
  5
253E
330
6B
100
AcDbEntity
  8
CENTRE
  6
ByBlock
 62
     2
100
AcDbLine
 10
596.6538982200741
 20
153.7538595849946
 30
0.0
 11
594.0281756248728
 21
149.8858877534137
 31
0.0
  0
LINE
  5
253F
330
6B
100
AcDbEntity
  8
CENTRE
  6
ByBlock
 62
     2
100
AcDbLine
 10
594.0281756248728
 20
149.8858877534137
 30
0.0
 11
596.3034531728616
 21
148.3413450503541
 31
0.0
  0
DIMENSION
  5
2540
102
{ACAD_XDICTIONARY
360
2541
102
}
102
{ACAD_REACTORS
330
2542
102
}
330
6B
100
AcDbEntity
  8
0
100
AcDbDimension
  2
*D41
 10
612.1208626321158
 20
161.378899401599
 30
0.0
 11
621.5708626321159
 21
161.378899401599
 31
0.0
 70
   160
  1
3xM<>  3.0 min
 71
     5
 42
1.996536804779452
 73
     0
 74
     0
 75
     0
  3
DMST_1
100
AcDbAlignedDimension
 13
610.1243258273363
 23
150.1540505952227
 33
0.0
 14
612.1208626321158
 24
150.1540505952227
 34
0.0
100
AcDbRotatedDimension
1001
ACAD
1000
DSTYLE
1002
{
1070
   147
1040
0.3
1070
    41
1040
1.5
1070
    71
1070
     0
1070
   140
1040
1.5
1070
   172
1070
     1
1070
   271
1070
     0
1070
   279
1070
     0
1002
}
  0
INSERT
  5
2543
330
6B
100
AcDbEntity
  8
0
100
AcDbBlockReference
  2
A$C3BE16BCC
 10
619.9465957168199
 20
161.6745803544156
 30
0.0
 41
0.5000000027093027
 42
0.5000000027093027
 43
0.5000000027093027
  0
TOLERANCE
  5
2544
330
6B
100
AcDbEntity
  8
0
100
AcDbFcf
  3
DMST_1
 10
595.6171829078408
 20
161.378899401599
 30
0.0
  1
{\Fgdt;j}%%v{\Fgdt;n}0.1%%v%%vA%%v%%v
1001
ACAD
1000
DSTYLE
1002
{
1070
    41
1040
2.5
1070
    42
1040
0.5
1070
    44
1040
1.0
1070
    71
1070
     0
1070
   140
1040
1.500000008127908
1070
   144
1040
0.5
1070
   146
1040
1.0
1070
   147
1040
0.5000000027093027
1070
   271
1070
     2
1070
   272
1070
     2
1070
   289
1070
     0
1002
}
  0
TEXT
  5
2B69
330
6B
100
AcDbEntity
  8
CENTRE
 62
     3
100
AcDbText
 10
722.113476389803
 20
153.1047152092621
 30
0.0
 40
1.05
  1
0
 50
90.0
100
AcDbText
  0
TEXT
  5
2B6A
330
6B
100
AcDbEntity
  8
CENTRE
 62
     3
100
AcDbText
 10
723.513476389803
 20
152.3714890563088
 30
0.0
 40
1.05
  1
-0.02
 50
90.0
100
AcDbText
  0
LINE
  5
2B6C
330
6B
100
AcDbEntity
  8
0
 62
     2
100
AcDbLine
 10
723.8842480947097
 20
152.454492448972
 30
0.0
 11
723.8842480947097
 21
155.591319018694
 31
0.0
  0
ENDSEC
  0
SECTION
  2
OBJECTS
  0
DICTIONARY
  5
C
330
0
100
AcDbDictionary
281
     1
  3
ACAD_COLOR
350
62
  3
ACAD_GROUP
350
D
  3
ACAD_LAYOUT
350
61
  3
ACAD_MATERIAL
350
10
  3
ACAD_MLEADERSTYLE
350
65
  3
ACAD_MLINESTYLE
350
5E
  3
ACAD_PLOTSETTINGS
350
60
  3
ACAD_PLOTSTYLENAME
350
E
  3
ACAD_SCALELIST
350
42
  3
ACAD_TABLESTYLE
350
63
  3
ACAD_VISUALSTYLE
350
29
  3
ACDB_RECOMPOSE_DATA
350
3DBE
  3
AcDbVariableDictionary
350
8BD
  0
DICTIONARY
  5
7B5
330
2
100
AcDbDictionary
280
     1
281
     1
  3
ACAD_LAYERSTATES
360
7B6
  0
DICTIONARY
  5
76F
330
54
100
AcDbDictionary
280
     1
281
     1
  3
ADSK_XREC_LAYER_RECONCILED
360
770
  0
DICTIONARY
  5
771
330
7B
100
AcDbDictionary
280
     1
281
     1
  3
ADSK_XREC_LAYER_RECONCILED
360
772
  0
DICTIONARY
  5
773
330
7C
100
AcDbDictionary
280
     1
281
     1
  3
ADSK_XREC_LAYER_RECONCILED
360
774
  0
DICTIONARY
  5
2335
330
2334
100
AcDbDictionary
280
     1
281
     1
  0
DICTIONARY
  5
1AD1
330
6B
100
AcDbDictionary
280
     1
281
     1
  3
ACAD_SORTENTS
360
1AD2
  0
DICTIONARY
  5
19DF
330
85
100
AcDbDictionary
280
     1
281
     1
  0
DICTIONARY
  5
F6B
330
345
100
AcDbDictionary
280
     1
281
     1
  0
DICTIONARY
  5
BD7
330
531
100
AcDbDictionary
280
     1
281
     1
  0
DICTIONARY
  5
BC7
330
53A
100
AcDbDictionary
280
     1
281
     1
  0
DICTIONARY
  5
196E
330
549
100
AcDbDictionary
280
     1
281
     1
  0
DICTIONARY
  5
576
330
564
100
AcDbDictionary
280
     1
281
     1
  0
DICTIONARY
  5
232C
330
232B
100
AcDbDictionary
280
     1
281
     1
  3
ACAD_SORTENTS
360
232D
  0
DICTIONARY
  5
3187
330
2496
100
AcDbDictionary
280
     1
281
     1
  3
ACAD_BREAKDATA
360
3192
  0
DICTIONARY
  5
24F5
330
24F4
100
AcDbDictionary
280
     1
281
     1
  3
ACAD_BREAKDATA
360
24F6
  0
DICTIONARY
  5
2500
330
24FF
100
AcDbDictionary
280
     1
281
     1
  3
ACAD_DIMASSOC
360
2501
  0
DICTIONARY
  5
2541
330
2540
100
AcDbDictionary
280
     1
281
     1
  3
ACAD_BREAKDATA
360
2D7E
  3
ACAD_DIMASSOC
360
2542
  0
DICTIONARY
  5
62
102
{ACAD_REACTORS
330
C
102
}
330
C
100
AcDbDictionary
281
     1
  0
DICTIONARY
  5
D
102
{ACAD_REACTORS
330
C
102
}
330
C
100
AcDbDictionary
281
     1
  0
DICTIONARY
  5
61
102
{ACAD_REACTORS
330
C
102
}
330
C
100
AcDbDictionary
281
     1
  3
Layout1
350
6A
  3
Model
350
6E
  0
DICTIONARY
  5
10
102
{ACAD_REACTORS
330
C
102
}
330
C
100
AcDbDictionary
281
     1
  3
ByBlock
350
19
  3
ByLayer
350
11
  3
Global
350
21
  0
DICTIONARY
  5
65
102
{ACAD_REACTORS
330
C
102
}
330
C
100
AcDbDictionary
281
     1
  3
Standard
350
66
  0
DICTIONARY
  5
5E
102
{ACAD_REACTORS
330
C
102
}
330
C
100
AcDbDictionary
281
     1
  3
Standard
350
5F
  0
DICTIONARY
  5
60
102
{ACAD_REACTORS
330
C
102
}
330
C
100
AcDbDictionary
281
     1
  0
ACDBDICTIONARYWDFLT
  5
E
102
{ACAD_REACTORS
330
C
102
}
330
C
100
AcDbDictionary
281
     1
  3
Normal
350
F
100
AcDbDictionaryWithDefault
340
F
  0
DICTIONARY
  5
42
102
{ACAD_REACTORS
330
C
102
}
330
C
100
AcDbDictionary
281
     1
  3
A0
350
43
  3
A1
350
44
  3
A2
350
45
  3
A3
350
46
  3
A4
350
47
  3
A5
350
48
  3
A6
350
49
  3
A7
350
4A
  3
A8
350
4B
  3
A9
350
4C
  3
B0
350
4D
  3
B1
350
4E
  3
B2
350
4F
  3
B3
350
50
  3
B4
350
51
  3
B5
350
52
  3
B6
350
53
  0
DICTIONARY
  5
63
102
{ACAD_REACTORS
330
C
102
}
330
C
100
AcDbDictionary
281
     1
  3
Standard
350
64
  0
DICTIONARY
  5
29
102
{ACAD_REACTORS
330
C
102
}
330
C
100
AcDbDictionary
281
     1
  3
2dWireframe
350
2F
  3
3dWireframe
350
233C
  3
Basic
350
2E
  3
Brighten
350
35
  3
ColorChange
350
39
  3
Conceptual
350
32
  3
Dim
350
34
  3
EdgeColorOff
350
41
  3
Facepattern
350
38
  3
Flat
350
2A
  3
FlatWithEdges
350
2B
  3
Gouraud
350
2C
  3
GouraudWithEdges
350
2D
  3
Hidden
350
31
  3
JitterOff
350
3F
  3
Linepattern
350
37
  3
OverhangOff
350
40
  3
Realistic
350
33
  3
Shaded
350
3E
  3
Shaded with edges
350
3D
  3
Shades of Gray
350
3A
  3
Sketchy
350
3B
  3
Thicken
350
36
  3
Wireframe
350
30
  3
X-Ray
350
3C
  0
XRECORD
  5
3DBE
102
{ACAD_REACTORS
330
C
102
}
330
C
100
AcDbXrecord
280
     1
 90
        1
330
64
  0
DICTIONARY
  5
8BD
102
{ACAD_REACTORS
330
C
102
}
330
C
100
AcDbDictionary
281
     1
  3
CANNOSCALE
350
8C1
  3
CMLEADERSTYLE
350
8BF
  3
CTABLESTYLE
350
8BE
  3
LAYEREVAL
350
8C3
  3
LAYERNOTIFY
350
8C4
  3
LIGHTINGUNITS
350
8C2
  3
MSLTSCALE
350
8C0
  3
XCLIPFRAME
350
3DBC
  0
DICTIONARY
  5
7B6
102
{ACAD_REACTORS
330
7B5
102
}
330
7B5
100
AcDbDictionary
281
     1
  0
XRECORD
  5
770
102
{ACAD_REACTORS
330
76F
102
}
330
76F
100
AcDbXrecord
280
     1
290
     1
  0
XRECORD
  5
772
102
{ACAD_REACTORS
330
771
102
}
330
771
100
AcDbXrecord
280
     1
290
     1
  0
XRECORD
  5
774
102
{ACAD_REACTORS
330
773
102
}
330
773
100
AcDbXrecord
280
     1
290
     1
  0
SORTENTSTABLE
  5
1AD2
102
{ACAD_REACTORS
330
1AD1
102
}
330
1AD1
100
AcDbSortentsTable
330
6B
331
24AF
  5
24AF
331
24AB
  5
24AB
331
2525
  5
2525
331
24A7
  5
24A7
331
2521
  5
2521
331
24E6
  5
24E6
331
24A3
  5
24A3
331
251D
  5
251D
331
24E2
  5
24E2
331
2519
  5
2519
331
2B69
  5
2B69
331
246F
  5
246F
331
246B
  5
246B
331
249F
  5
249F
331
24DE
  5
24DE
331
249B
  5
249B
331
2515
  5
2515
331
24DA
  5
24DA
331
24D6
  5
24D6
331
2511
  5
2511
331
24D2
  5
24D2
331
2493
  5
2493
331
250D
  5
250D
331
2509
  5
2509
331
768
  5
768
331
2467
  5
2467
331
2463
  5
2463
331
245F
  5
245F
331
245B
  5
245B
331
24CE
  5
24CE
331
248F
  5
248F
331
24CA
  5
24CA
331
248B
  5
248B
331
2544
  5
2544
331
2505
  5
2505
331
24C6
  5
24C6
331
2487
  5
2487
331
2540
  5
2540
331
24C2
  5
24C2
331
2483
  5
2483
331
253C
  5
253C
331
24FD
  5
24FD
331
2538
  5
2538
331
24F9
  5
24F9
331
2457
  5
2457
331
2453
  5
2453
331
244F
  5
244F
331
244B
  5
244B
331
24BE
  5
24BE
331
247F
  5
247F
331
24BA
  5
24BA
331
247B
  5
247B
331
2534
  5
2534
331
24B6
  5
24B6
331
2477
  5
2477
331
24F1
  5
24F1
331
2530
  5
2530
331
24B2
  5
24B2
331
2473
  5
2473
331
252C
  5
252C
331
24ED
  5
24ED
331
2528
  5
2528
331
24E9
  5
24E9
331
56C
  5
56C
331
2447
  5
2447
331
24AE
  5
24AE
331
24AA
  5
24AA
331
2524
  5
2524
331
24A6
  5
24A6
331
2520
  5
2520
331
24E5
  5
24E5
331
24A2
  5
24A2
331
251C
  5
251C
331
24E1
  5
24E1
331
2518
  5
2518
331
246E
  5
246E
331
246A
  5
246A
331
24DD
  5
24DD
331
249E
  5
249E
331
24D9
  5
24D9
331
2514
  5
2514
331
249A
  5
249A
331
24D5
  5
24D5
331
2510
  5
2510
331
2496
  5
2496
331
24D1
  5
24D1
331
250C
  5
250C
331
2492
  5
2492
331
2508
  5
2508
331
2466
  5
2466
331
767
  5
767
331
2462
  5
2462
331
245E
  5
245E
331
245A
  5
245A
331
24CD
  5
24CD
331
248E
  5
248E
331
24C9
  5
24C9
331
2543
  5
2543
331
2504
  5
2504
331
248A
  5
248A
331
24C5
  5
24C5
331
253F
  5
253F
331
2486
  5
2486
331
24C1
  5
24C1
331
253B
  5
253B
331
2482
  5
2482
331
24F8
  5
24F8
331
2456
  5
2456
331
2452
  5
2452
331
244E
  5
244E
331
244A
  5
244A
331
24BD
  5
24BD
331
2537
  5
2537
331
247E
  5
247E
331
24B9
  5
24B9
331
24F4
  5
24F4
331
2533
  5
2533
331
247A
  5
247A
331
24B5
  5
24B5
331
24F0
  5
24F0
331
252F
  5
252F
331
2476
  5
2476
331
24B1
  5
24B1
331
252B
  5
252B
331
24EC
  5
24EC
331
2472
  5
2472
331
24E8
  5
24E8
331
2446
  5
2446
331
2527
  5
2527
331
24AD
  5
24AD
331
2523
  5
2523
331
24A9
  5
24A9
331
24E4
  5
24E4
331
251F
  5
251F
331
24A5
  5
24A5
331
24E0
  5
24E0
331
251B
  5
251B
331
24A1
  5
24A1
331
246D
  5
246D
331
2469
  5
2469
331
24DC
  5
24DC
331
2517
  5
2517
331
249D
  5
249D
331
24D8
  5
24D8
331
2513
  5
2513
331
2499
  5
2499
331
24D4
  5
24D4
331
250F
  5
250F
331
2495
  5
2495
331
24D0
  5
24D0
331
250B
  5
250B
331
2491
  5
2491
331
2465
  5
2465
331
2461
  5
2461
331
245D
  5
245D
331
2459
  5
2459
331
24CC
  5
24CC
331
2507
  5
2507
331
248D
  5
248D
331
24C8
  5
24C8
331
2503
  5
2503
331
2489
  5
2489
331
24C4
  5
24C4
331
253E
  5
253E
331
24FF
  5
24FF
331
2485
  5
2485
331
24C0
  5
24C0
331
253A
  5
253A
331
2481
  5
2481
331
2455
  5
2455
331
2451
  5
2451
331
244D
  5
244D
331
2449
  5
2449
331
24BC
  5
24BC
331
24F7
  5
24F7
331
2536
  5
2536
331
247D
  5
247D
331
24B8
  5
24B8
331
24F3
  5
24F3
331
2532
  5
2532
331
2479
  5
2479
331
24B4
  5
24B4
331
252E
  5
252E
331
24EF
  5
24EF
331
2475
  5
2475
331
24B0
  5
24B0
331
252A
  5
252A
331
24EB
  5
24EB
331
2471
  5
2471
331
2445
  5
2445
331
2526
  5
2526
331
24AC
  5
24AC
331
24E7
  5
24E7
331
2522
  5
2522
331
24A8
  5
24A8
331
24E3
  5
24E3
331
251E
  5
251E
331
24A4
  5
24A4
331
251A
  5
251A
331
24A0
  5
24A0
331
2B6A
  5
2B6A
331
246C
  5
246C
331
2468
  5
2468
331
24DF
  5
24DF
331
24DB
  5
24DB
331
249C
  5
249C
331
2516
  5
2516
331
24D7
  5
24D7
331
2512
  5
2512
331
24D3
  5
24D3
331
2494
  5
2494
331
250E
  5
250E
331
2490
  5
2490
331
250A
  5
250A
331
769
  5
769
331
2464
  5
2464
331
2460
  5
2460
331
245C
  5
245C
331
2458
  5
2458
331
24CF
  5
24CF
331
24CB
  5
24CB
331
248C
  5
248C
331
2506
  5
2506
331
24C7
  5
24C7
331
2488
  5
2488
331
2502
  5
2502
331
24C3
  5
24C3
331
2484
  5
2484
331
253D
  5
253D
331
24FE
  5
24FE
331
2480
  5
2480
331
2539
  5
2539
331
24FA
  5
24FA
331
2454
  5
2454
331
2450
  5
2450
331
244C
  5
244C
331
2448
  5
2448
331
24BF
  5
24BF
331
24BB
  5
24BB
331
247C
  5
247C
331
2535
  5
2535
331
24B7
  5
24B7
331
2478
  5
2478
331
24F2
  5
24F2
331
2531
  5
2531
331
24B3
  5
24B3
331
2474
  5
2474
331
252D
  5
252D
331
24EE
  5
24EE
331
2470
  5
2470
331
2529
  5
2529
331
24EA
  5
24EA
331
2444
  5
2444
  0
SORTENTSTABLE
  5
232D
102
{ACAD_REACTORS
330
232C
102
}
330
232C
100
AcDbSortentsTable
330
232B
  0
BREAKDATA
  5
3192
102
{ACAD_REACTORS
330
3187
102
}
330
3187
100
AcDbBreakData
 70
     0
330
2496
 90
        4
100
AcDbBreakPointRef
 71
     2
 72
     0
 91
        1
 10
708.793870479206
 20
146.7128741059885
 30
0.0
 11
710.0868663557981
 21
146.7128741059885
 31
0.0
100
AcDbBreakPointRef
 71
     2
 72
     0
 91
        1
 10
718.5905452910467
 20
146.7128741059885
 30
0.0
 11
719.6798602459629
 21
146.7128741059885
 31
0.0
100
AcDbBreakPointRef
 71
     2
 72
     0
 91
        0
 10
712.5152017582948
 20
136.7128740518024
 30
0.0
 11
713.4535352684021
 21
136.7128740518024
 31
0.0
100
AcDbBreakPointRef
 71
     2
 72
     0
 91
        0
 10
718.7938916815559
 20
136.7128740518024
 30
0.0
 11
719.5303484550777
 21
136.7128740518024
 31
0.0
  0
BREAKDATA
  5
24F6
102
{ACAD_REACTORS
330
24F5
102
}
330
24F5
100
AcDbBreakData
 70
     0
330
24F4
 90
        4
100
AcDbBreakPointRef
 71
     2
 72
     0
 91
        1
 10
793.2384583915807
 20
133.4071246677824
 30
0.0
 11
794.4898208781544
 21
132.6846501993054
 31
0.0
100
AcDbBreakPointRef
 71
     2
 72
     0
 91
        0
 10
778.8524784165963
 20
157.7062051831431
 30
0.0
 11
778.8524784165963
 21
156.7920137320236
 31
0.0
100
AcDbBreakPointRef
 71
     2
 72
     0
 91
        1
 10
781.4923855685623
 20
133.2605197437971
 30
0.0
 11
782.3154804384833
 21
132.7853056990797
 31
0.0
100
AcDbBreakPointRef
 71
     2
 72
     0
 91
        1
 10
768.4480242451029
 20
133.2861317658382
 30
0.0
 11
769.2657619741147
 21
132.8140106678667
 31
0.0
  0
DIMASSOC
  5
2501
102
{ACAD_REACTORS
330
2500
102
}
330
2500
100
AcDbDimAssoc
330
24FF
 90
        1
 70
     0
 71
     0
  1
AcDbOsnapPointRef
 72
    10
331
2458
 73
     2
 91
        0
 40
0.3915810151451609
 10
0.0
 20
0.0
 30
0.0
 75
     0
  0
BREAKDATA
  5
2D7E
102
{ACAD_REACTORS
330
2541
102
}
330
2541
100
AcDbBreakData
 70
     0
330
2540
 90
        1
100
AcDbBreakPointRef
 71
     2
 72
     0
 91
        0
 10
610.1243258273363
 20
156.8336116014215
 30
0.0
 11
610.1243258273363
 21
158.333413333385
 31
0.0
  0
DIMASSOC
  5
2542
102
{ACAD_REACTORS
330
2541
102
}
330
2541
100
AcDbDimAssoc
330
2540
 90
        3
 70
     0
 71
     0
  1
AcDbOsnapPointRef
 72
    11
331
2537
 73
     2
 91
        0
 40
1.688511338690406
 10
0.0
 20
0.0
 30
0.0
332
2534
 74
     2
 92
        0
 75
     0
  1
AcDbOsnapPointRef
 72
    11
331
2537
 73
     2
 91
        0
 40
1.453081314899385
 10
0.0
 20
0.0
 30
0.0
332
2534
 74
     2
 92
        0
 75
     0
  0
LAYOUT
  5
6A
102
{ACAD_REACTORS
330
61
102
}
330
61
100
AcDbPlotSettings
  1

  2
Send To OneNote 2010
  4

  6

 40
0.0
 41
0.0
 42
0.0
 43
0.0
 44
0.0
 45
0.0
 46
0.0
 47
0.0
 48
0.0
 49
0.0
140
0.0
141
0.0
142
1.0
143
1.0
 70
   688
 72
     0
 73
     0
 74
     5
  7

 75
    16
147
1.0
 76
     0
 77
     2
 78
   300
148
0.0
149
0.0
100
AcDbLayout
  1
Layout1
 70
     1
 71
     1
 10
0.0
 20
0.0
 11
12.0
 21
9.0
 12
0.0
 22
0.0
 32
0.0
 14
1.000000000000000E+20
 24
1.000000000000000E+20
 34
1.000000000000000E+20
 15
-1.000000000000000E+20
 25
-1.000000000000000E+20
 35
-1.000000000000000E+20
146
0.0
 13
0.0
 23
0.0
 33
0.0
 16
1.0
 26
0.0
 36
0.0
 17
0.0
 27
1.0
 37
0.0
 76
     0
330
67
  0
LAYOUT
  5
6E
102
{ACAD_XDICTIONARY
360
7BB
102
}
102
{ACAD_REACTORS
330
61
102
}
330
61
100
AcDbPlotSettings
  1

  2
none_device
  4
Letter_(8.50_x_11.00_Inches)
  6

 40
6.349999904632568
 41
6.349999904632568
 42
6.350006103515625
 43
6.350006103515625
 44
215.8999938964844
 45
279.3999938964844
 46
0.0
 47
0.0
 48
0.0
 49
0.0
140
0.0
141
0.0
142
1.0
143
27.67604759241908
 70
 11952
 72
     0
 73
     1
 74
     0
  7

 75
     0
147
0.0361323269394116
 76
     0
 77
     2
 78
   300
148
-13208.56571765139
149
-2053.253010883908
100
AcDbLayout
  1
Model
 70
     1
 71
     0
 10
0.0
 20
0.0
 11
12.0
 21
9.0
 12
0.0
 22
0.0
 32
0.0
 14
0.0
 24
0.0
 34
0.0
 15
0.0
 25
0.0
 35
0.0
146
0.0
 13
0.0
 23
0.0
 33
0.0
 16
1.0
 26
0.0
 36
0.0
 17
0.0
 27
1.0
 37
0.0
 76
     0
330
6B
331
84
1001
ACAD_PSEXT
1000
None
1000
None
1000
Not applicable
1000
The layout will not be plotted unless a new plotter configuration name is selected.
1070
     0
  0
MATERIAL
  5
19
102
{ACAD_XDICTIONARY
360
1A
102
}
102
{ACAD_REACTORS
330
10
102
}
330
10
100
AcDbMaterial
  1
ByBlock
 72
     0
 43
0.0208333333333333
 43
0.0
 43
0.0
 43
0.0
 43
0.0
 43
0.0208333333333333
 43
0.0
 43
0.0
 43
0.0
 43
0.0
 43
1.0
 43
0.0
 43
0.0
 43
0.0
 43
0.0
 43
1.0
 77
     0
 47
0.0208333333333333
 47
0.0
 47
0.0
 47
0.0
 47
0.0
 47
0.0208333333333333
 47
0.0
 47
0.0
 47
0.0
 47
0.0
 47
1.0
 47
0.0
 47
0.0
 47
0.0
 47
0.0
 47
1.0
171
     0
 49
0.0208333333333333
 49
0.0
 49
0.0
 49
0.0
 49
0.0
 49
0.0208333333333333
 49
0.0
 49
0.0
 49
0.0
 49
0.0
 49
1.0
 49
0.0
 49
0.0
 49
0.0
 49
0.0
 49
1.0
175
     0
142
0.0208333333333333
142
0.0
142
0.0
142
0.0
142
0.0
142
0.0208333333333333
142
0.0
142
0.0
142
0.0
142
0.0
142
1.0
142
0.0
142
0.0
142
0.0
142
0.0
142
1.0
179
     0
144
0.0208333333333333
144
0.0
144
0.0
144
0.0
144
0.0
144
0.0208333333333333
144
0.0
144
0.0
144
0.0
144
0.0
144
1.0
144
0.0
144
0.0
144
0.0
144
0.0
144
1.0
147
0.0208333333333333
147
0.0
147
0.0
147
0.0
147
0.0
147
0.0208333333333333
147
0.0
147
0.0
147
0.0
147
0.0
147
1.0
147
0.0
147
0.0
147
0.0
147
0.0
147
1.0
  0
MATERIAL
  5
11
102
{ACAD_XDICTIONARY
360
12
102
}
102
{ACAD_REACTORS
330
10
102
}
330
10
100
AcDbMaterial
  1
ByLayer
 72
     0
 43
0.0208333333333333
 43
0.0
 43
0.0
 43
0.0
 43
0.0
 43
0.0208333333333333
 43
0.0
 43
0.0
 43
0.0
 43
0.0
 43
1.0
 43
0.0
 43
0.0
 43
0.0
 43
0.0
 43
1.0
 77
     0
 47
0.0208333333333333
 47
0.0
 47
0.0
 47
0.0
 47
0.0
 47
0.0208333333333333
 47
0.0
 47
0.0
 47
0.0
 47
0.0
 47
1.0
 47
0.0
 47
0.0
 47
0.0
 47
0.0
 47
1.0
171
     0
 49
0.0208333333333333
 49
0.0
 49
0.0
 49
0.0
 49
0.0
 49
0.0208333333333333
 49
0.0
 49
0.0
 49
0.0
 49
0.0
 49
1.0
 49
0.0
 49
0.0
 49
0.0
 49
0.0
 49
1.0
175
     0
142
0.0208333333333333
142
0.0
142
0.0
142
0.0
142
0.0
142
0.0208333333333333
142
0.0
142
0.0
142
0.0
142
0.0
142
1.0
142
0.0
142
0.0
142
0.0
142
0.0
142
1.0
179
     0
144
0.0208333333333333
144
0.0
144
0.0
144
0.0
144
0.0
144
0.0208333333333333
144
0.0
144
0.0
144
0.0
144
0.0
144
1.0
144
0.0
144
0.0
144
0.0
144
0.0
144
1.0
147
0.0208333333333333
147
0.0
147
0.0
147
0.0
147
0.0
147
0.0208333333333333
147
0.0
147
0.0
147
0.0
147
0.0
147
1.0
147
0.0
147
0.0
147
0.0
147
0.0
147
1.0
  0
MATERIAL
  5
21
102
{ACAD_XDICTIONARY
360
22
102
}
102
{ACAD_REACTORS
330
10
102
}
330
10
100
AcDbMaterial
  1
Global
 72
     0
 43
0.0208333333333333
 43
0.0
 43
0.0
 43
0.0
 43
0.0
 43
0.0208333333333333
 43
0.0
 43
0.0
 43
0.0
 43
0.0
 43
1.0
 43
0.0
 43
0.0
 43
0.0
 43
0.0
 43
1.0
 77
     0
 47
0.0208333333333333
 47
0.0
 47
0.0
 47
0.0
 47
0.0
 47
0.0208333333333333
 47
0.0
 47
0.0
 47
0.0
 47
0.0
 47
1.0
 47
0.0
 47
0.0
 47
0.0
 47
0.0
 47
1.0
171
     0
 49
0.0208333333333333
 49
0.0
 49
0.0
 49
0.0
 49
0.0
 49
0.0208333333333333
 49
0.0
 49
0.0
 49
0.0
 49
0.0
 49
1.0
 49
0.0
 49
0.0
 49
0.0
 49
0.0
 49
1.0
175
     0
142
0.0208333333333333
142
0.0
142
0.0
142
0.0
142
0.0
142
0.0208333333333333
142
0.0
142
0.0
142
0.0
142
0.0
142
1.0
142
0.0
142
0.0
142
0.0
142
0.0
142
1.0
179
     0
144
0.0208333333333333
144
0.0
144
0.0
144
0.0
144
0.0
144
0.0208333333333333
144
0.0
144
0.0
144
0.0
144
0.0
144
1.0
144
0.0
144
0.0
144
0.0
144
0.0
144
1.0
147
0.0208333333333333
147
0.0
147
0.0
147
0.0
147
0.0
147
0.0208333333333333
147
0.0
147
0.0
147
0.0
147
0.0
147
1.0
147
0.0
147
0.0
147
0.0
147
0.0
147
1.0
  0
MLEADERSTYLE
  5
66
102
{ACAD_REACTORS
330
65
102
}
330
65
100
AcDbMLeaderStyle
170
     2
171
     1
172
     0
 90
        2
 40
0.0
 41
0.0
173
     1
 91
-1056964608
340
5A
 92
       -2
290
     1
 42
0.09
291
     1
 43
0.36
  3
Standard
 44
0.18
300

342
55
174
     1
178
     6
175
     1
176
     0
 93
-1056964608
 45
0.18
292
     0
297
     0
 46
0.18
 94
-1056964608
 47
1.0
 49
1.0
140
1.0
293
     1
141
0.0
294
     1
177
     0
142
1.0
295
     0
296
     0
143
0.125
1001
ACAD_MLEADERVER
1070
     2
  0
MLINESTYLE
  5
5F
102
{ACAD_REACTORS
330
5E
102
}
330
5E
100
AcDbMlineStyle
  2
STANDARD
 70
     0
  3

 62
   256
 51
90.0
 52
90.0
 71
     2
 49
0.5
 62
   256
  6
BYLAYER
 49
-0.5
 62
   256
  6
BYLAYER
  0
ACDBPLACEHOLDER
  5
F
102
{ACAD_REACTORS
330
E
102
}
330
E
  0
SCALE
  5
43
102
{ACAD_REACTORS
330
42
102
}
330
42
100
AcDbScale
 70
     0
300
1:1
140
1.0
141
1.0
290
     1
  0
SCALE
  5
44
102
{ACAD_REACTORS
330
42
102
}
330
42
100
AcDbScale
 70
     0
300
1/128" = 1'-0"
140
0.0078125
141
12.0
290
     0
  0
SCALE
  5
45
102
{ACAD_REACTORS
330
42
102
}
330
42
100
AcDbScale
 70
     0
300
1/64" = 1'-0"
140
0.015625
141
12.0
290
     0
  0
SCALE
  5
46
102
{ACAD_REACTORS
330
42
102
}
330
42
100
AcDbScale
 70
     0
300
1/32" = 1'-0"
140
0.03125
141
12.0
290
     0
  0
SCALE
  5
47
102
{ACAD_REACTORS
330
42
102
}
330
42
100
AcDbScale
 70
     0
300
1/16" = 1'-0"
140
0.0625
141
12.0
290
     0
  0
SCALE
  5
48
102
{ACAD_REACTORS
330
42
102
}
330
42
100
AcDbScale
 70
     0
300
3/32" = 1'-0"
140
0.09375
141
12.0
290
     0
  0
SCALE
  5
49
102
{ACAD_REACTORS
330
42
102
}
330
42
100
AcDbScale
 70
     0
300
1/8" = 1'-0"
140
0.125
141
12.0
290
     0
  0
SCALE
  5
4A
102
{ACAD_REACTORS
330
42
102
}
330
42
100
AcDbScale
 70
     0
300
3/16" = 1'-0"
140
0.1875
141
12.0
290
     0
  0
SCALE
  5
4B
102
{ACAD_REACTORS
330
42
102
}
330
42
100
AcDbScale
 70
     0
300
1/4" = 1'-0"
140
0.25
141
12.0
290
     0
  0
SCALE
  5
4C
102
{ACAD_REACTORS
330
42
102
}
330
42
100
AcDbScale
 70
     0
300
3/8" = 1'-0"
140
0.375
141
12.0
290
     0
  0
SCALE
  5
4D
102
{ACAD_REACTORS
330
42
102
}
330
42
100
AcDbScale
 70
     0
300
1/2" = 1'-0"
140
0.5
141
12.0
290
     0
  0
SCALE
  5
4E
102
{ACAD_REACTORS
330
42
102
}
330
42
100
AcDbScale
 70
     0
300
3/4" = 1'-0"
140
0.75
141
12.0
290
     0
  0
SCALE
  5
4F
102
{ACAD_REACTORS
330
42
102
}
330
42
100
AcDbScale
 70
     0
300
1" = 1'-0"
140
1.0
141
12.0
290
     0
  0
SCALE
  5
50
102
{ACAD_REACTORS
330
42
102
}
330
42
100
AcDbScale
 70
     0
300
1-1/2" = 1'-0"
140
1.5
141
12.0
290
     0
  0
SCALE
  5
51
102
{ACAD_REACTORS
330
42
102
}
330
42
100
AcDbScale
 70
     0
300
3" = 1'-0"
140
3.0
141
12.0
290
     0
  0
SCALE
  5
52
102
{ACAD_REACTORS
330
42
102
}
330
42
100
AcDbScale
 70
     0
300
6" = 1'-0"
140
6.0
141
12.0
290
     0
  0
SCALE
  5
53
102
{ACAD_REACTORS
330
42
102
}
330
42
100
AcDbScale
 70
     0
300
1'-0" = 1'-0"
140
12.0
141
12.0
290
     0
  0
TABLESTYLE
  5
64
102
{ACAD_XDICTIONARY
360
889
102
}
102
{ACAD_REACTORS
330
63
102
}
330
63
100
AcDbTableStyle
  3
Standard
 70
     0
 71
     0
 40
0.06
 41
0.06
280
     0
281
     0
  7
STANDARD
140
0.18
170
     2
 62
     0
 63
     7
283
     0
 90
      512
 91
        0
  1

274
    -2
284
     1
 64
     0
275
    -2
285
     1
 65
     0
276
    -2
286
     1
 66
     0
277
    -2
287
     1
 67
     0
278
    -2
288
     1
 68
     0
279
    -2
289
     1
 69
     0
  7
STANDARD
140
0.25
170
     5
 62
     0
 63
     7
283
     0
 90
      512
 91
        0
  1

274
    -2
284
     1
 64
     0
275
    -2
285
     1
 65
     0
276
    -2
286
     1
 66
     0
277
    -2
287
     1
 67
     0
278
    -2
288
     1
 68
     0
279
    -2
289
     1
 69
     0
  7
STANDARD
140
0.18
170
     5
 62
     0
 63
     7
283
     0
 90
      512
 91
        0
  1

274
    -2
284
     1
 64
     0
275
    -2
285
     1
 65
     0
276
    -2
286
     1
 66
     0
277
    -2
287
     1
 67
     0
278
    -2
288
     1
 68
     0
279
    -2
289
     1
 69
     0
  0
VISUALSTYLE
  5
2F
102
{ACAD_XDICTIONARY
360
3DC9
102
}
102
{ACAD_REACTORS
330
29
102
}
330
29
100
AcDbVisualStyle
  2
2dWireframe
 70
     4
 71
     0
 72
     2
 73
     0
 90
        0
 40
-0.6
 41
-30.0
 62
     5
 63
     7
421
 16777215
 74
     1
 91
        4
 64
     7
 65
   257
 75
     1
175
     1
 42
1.0
 92
        0
 66
   257
 43
1.0
 76
     1
 77
     6
 78
     2
 67
     7
 79
     5
170
     0
171
     0
290
     0
174
     0
 93
        1
 44
0.0
173
     0
291
     0
 45
0.0
1001
ACAD
1000
AcDbSavedByObjectVersion
1070
     0
  0
VISUALSTYLE
  5
233C
102
{ACAD_XDICTIONARY
360
3DEF
102
}
102
{ACAD_REACTORS
330
29
102
}
330
29
100
AcDbVisualStyle
  2

 70
     5
 71
     0
 72
     2
 73
     0
 90
        0
 40
-0.6
 41
-30.0
 62
     5
 63
     7
 74
     1
 91
        4
 64
     7
 65
   257
 75
     1
175
     1
 42
1.0
 92
        0
 66
   257
 43
1.0
 76
     1
 77
     6
 78
     2
 67
     7
 79
     5
170
     0
171
     0
290
     0
174
     0
 93
        1
 44
0.0
173
     0
291
     0
 45
0.0
1001
ACAD
1000
AcDbSavedByObjectVersion
1070
     0
  0
VISUALSTYLE
  5
2E
102
{ACAD_XDICTIONARY
360
3DC7
102
}
102
{ACAD_REACTORS
330
29
102
}
330
29
100
AcDbVisualStyle
  2
Basic
 70
     7
 71
     1
 72
     0
 73
     1
 90
        0
 40
-0.6
 41
-30.0
 62
     5
 63
     7
421
 16777215
 74
     0
 91
        4
 64
     7
 65
   257
 75
     1
175
     1
 42
1.0
 92
        8
 66
     7
 43
1.0
 76
     1
 77
     6
 78
     2
 67
     7
 79
     5
170
     0
171
     0
290
     0
174
     0
 93
        1
 44
0.0
173
     0
291
     1
 45
0.0
1001
ACAD
1000
AcDbSavedByObjectVersion
1070
     0
  0
VISUALSTYLE
  5
35
102
{ACAD_XDICTIONARY
360
3DD5
102
}
102
{ACAD_REACTORS
330
29
102
}
330
29
100
AcDbVisualStyle
  2
Brighten
 70
    12
 71
     2
 72
     2
 73
     0
 90
        0
 40
-0.6
 41
-30.0
 62
     5
 63
     7
421
 16777215
 74
     1
 91
        4
 64
     7
 65
   257
 75
     1
175
     1
 42
1.0
 92
        8
 66
     7
 43
1.0
 76
     1
 77
     6
 78
     2
 67
     7
 79
     5
170
     0
171
     0
290
     0
174
     0
 93
        1
 44
50.0
173
     0
291
     1
 45
0.0
1001
ACAD
1000
AcDbSavedByObjectVersion
1070
     0
  0
VISUALSTYLE
  5
39
102
{ACAD_XDICTIONARY
360
3DDD
102
}
102
{ACAD_REACTORS
330
29
102
}
330
29
100
AcDbVisualStyle
  2
ColorChange
 70
    16
 71
     2
 72
     2
 73
     3
 90
        0
 40
-0.6
 41
-30.0
 62
     5
 63
     8
421
  8421504
 74
     1
 91
        4
 64
     7
 65
   257
 75
     1
175
     1
 42
1.0
 92
        8
 66
     8
424
  8421504
 43
1.0
 76
     1
 77
     6
 78
     2
 67
     7
 79
     5
170
     0
171
     0
290
     0
174
     0
 93
        1
 44
0.0
173
     0
291
     1
 45
0.0
1001
ACAD
1000
AcDbSavedByObjectVersion
1070
     0
  0
VISUALSTYLE
  5
32
102
{ACAD_XDICTIONARY
360
3DCF
102
}
102
{ACAD_REACTORS
330
29
102
}
330
29
100
AcDbVisualStyle
  2
Conceptual
 70
     9
 71
     3
 72
     2
 73
     0
 90
        0
 40
-0.6
 41
-30.0
 62
     5
 63
     7
421
 16777215
 74
     2
 91
        2
 64
     7
 65
   257
 75
     1
175
     1
 42
179.0
 92
        8
 66
     7
 43
1.0
 76
     1
 77
     6
 78
     2
 67
     7
 79
     3
170
     0
171
     0
290
     0
174
     0
 93
        1
 44
0.0
173
     0
291
     0
 45
0.0
1001
ACAD
1000
AcDbSavedByObjectVersion
1070
     0
  0
VISUALSTYLE
  5
34
102
{ACAD_XDICTIONARY
360
3DD3
102
}
102
{ACAD_REACTORS
330
29
102
}
330
29
100
AcDbVisualStyle
  2
Dim
 70
    11
 71
     2
 72
     2
 73
     0
 90
        0
 40
-0.6
 41
-30.0
 62
     5
 63
     7
421
 16777215
 74
     1
 91
        4
 64
     7
 65
   257
 75
     1
175
     1
 42
1.0
 92
        8
 66
     7
 43
1.0
 76
     1
 77
     6
 78
     2
 67
     7
 79
     5
170
     0
171
     0
290
     0
174
     0
 93
        1
 44
-50.0
173
     0
291
     1
 45
0.0
1001
ACAD
1000
AcDbSavedByObjectVersion
1070
     0
  0
VISUALSTYLE
  5
41
102
{ACAD_XDICTIONARY
360
3DED
102
}
102
{ACAD_REACTORS
330
29
102
}
330
29
100
AcDbVisualStyle
  2
EdgeColorOff
 70
    22
 71
     2
 72
     2
 73
     0
 90
        0
 40
-0.6
 41
-30.0
 62
     5
 63
     7
421
 16777215
 74
     1
 91
        4
 64
     7
 65
   257
 75
     1
175
     1
 42
1.0
 92
        8
 66
     7
 43
1.0
 76
     1
 77
     6
 78
     2
 67
     7
 79
     5
170
     0
171
     0
290
     0
174
     0
 93
        1
 44
0.0
173
     0
291
     1
 45
0.0
1001
ACAD
1000
AcDbSavedByObjectVersion
1070
     0
  0
VISUALSTYLE
  5
38
102
{ACAD_XDICTIONARY
360
3DDB
102
}
102
{ACAD_REACTORS
330
29
102
}
330
29
100
AcDbVisualStyle
  2
Facepattern
 70
    15
 71
     2
 72
     2
 73
     0
 90
        0
 40
-0.6
 41
-30.0
 62
     5
 63
     7
421
 16777215
 74
     1
 91
        4
 64
     7
 65
   257
 75
     1
175
     1
 42
1.0
 92
        8
 66
     7
 43
1.0
 76
     1
 77
     6
 78
     2
 67
     7
 79
     5
170
     0
171
     0
290
     0
174
     0
 93
        1
 44
0.0
173
     0
291
     1
 45
0.0
1001
ACAD
1000
AcDbSavedByObjectVersion
1070
     0
  0
VISUALSTYLE
  5
2A
102
{ACAD_XDICTIONARY
360
3DBF
102
}
102
{ACAD_REACTORS
330
29
102
}
330
29
100
AcDbVisualStyle
  2
Flat
 70
     0
 71
     2
 72
     1
 73
     1
 90
        2
 40
-0.6
 41
30.0
 62
     5
 63
     7
421
 16777215
 74
     0
 91
        0
 64
     7
 65
   257
 75
     1
175
     1
 42
1.0
 92
        8
 66
     7
 43
1.0
 76
     1
 77
     6
 78
     2
 67
     7
 79
     5
170
     0
171
     0
290
     0
174
     0
 93
       13
 44
0.0
173
     0
291
     1
 45
0.0
1001
ACAD
1000
AcDbSavedByObjectVersion
1070
     0
  0
VISUALSTYLE
  5
2B
102
{ACAD_XDICTIONARY
360
3DC1
102
}
102
{ACAD_REACTORS
330
29
102
}
330
29
100
AcDbVisualStyle
  2
FlatWithEdges
 70
     1
 71
     2
 72
     1
 73
     1
 90
        2
 40
-0.6
 41
30.0
 62
     5
 63
     7
421
 16777215
 74
     1
 91
        0
 64
     7
 65
   257
 75
     1
175
     1
 42
1.0
 92
        0
 66
   257
 43
1.0
 76
     1
 77
     6
 78
     2
 67
     7
 79
     5
170
     0
171
     0
290
     0
174
     0
 93
       13
 44
0.0
173
     0
291
     1
 45
0.0
1001
ACAD
1000
AcDbSavedByObjectVersion
1070
     0
  0
VISUALSTYLE
  5
2C
102
{ACAD_XDICTIONARY
360
3DC3
102
}
102
{ACAD_REACTORS
330
29
102
}
330
29
100
AcDbVisualStyle
  2
Gouraud
 70
     2
 71
     2
 72
     2
 73
     1
 90
        2
 40
-0.6
 41
30.0
 62
     5
 63
     7
421
 16777215
 74
     0
 91
        0
 64
     7
 65
   257
 75
     1
175
     1
 42
1.0
 92
        0
 66
     7
 43
1.0
 76
     1
 77
     6
 78
     2
 67
     7
 79
     5
170
     0
171
     0
290
     0
174
     0
 93
       13
 44
0.0
173
     0
291
     1
 45
0.0
1001
ACAD
1000
AcDbSavedByObjectVersion
1070
     0
  0
VISUALSTYLE
  5
2D
102
{ACAD_XDICTIONARY
360
3DC5
102
}
102
{ACAD_REACTORS
330
29
102
}
330
29
100
AcDbVisualStyle
  2
GouraudWithEdges
 70
     3
 71
     2
 72
     2
 73
     1
 90
        2
 40
-0.6
 41
30.0
 62
     5
 63
     7
421
 16777215
 74
     1
 91
        0
 64
     7
 65
   257
 75
     1
175
     1
 42
1.0
 92
        0
 66
   257
 43
1.0
 76
     1
 77
     6
 78
     2
 67
     7
 79
     5
170
     0
171
     0
290
     0
174
     0
 93
       13
 44
0.0
173
     0
291
     1
 45
0.0
1001
ACAD
1000
AcDbSavedByObjectVersion
1070
     0
  0
VISUALSTYLE
  5
31
102
{ACAD_XDICTIONARY
360
3DCD
102
}
102
{ACAD_REACTORS
330
29
102
}
330
29
100
AcDbVisualStyle
  2
Hidden
 70
     6
 71
     1
 72
     2
 73
     2
 90
        0
 40
-0.6
 41
-30.0
 62
     5
 63
     7
421
 16777215
 74
     2
 91
        2
 64
     7
 65
   257
 75
     2
175
     1
 42
40.0
 92
        0
 66
   257
 43
1.0
 76
     1
 77
     6
 78
     2
 67
     7
 79
     3
170
     0
171
     0
290
     0
174
     0
 93
        1
 44
0.0
173
     0
291
     0
 45
0.0
1001
ACAD
1000
AcDbSavedByObjectVersion
1070
     0
  0
VISUALSTYLE
  5
3F
102
{ACAD_XDICTIONARY
360
3DE9
102
}
102
{ACAD_REACTORS
330
29
102
}
330
29
100
AcDbVisualStyle
  2
JitterOff
 70
    20
 71
     2
 72
     2
 73
     0
 90
        0
 40
-0.6
 41
-30.0
 62
     5
 63
     7
421
 16777215
 74
     1
 91
        4
 64
     7
 65
   257
 75
     1
175
     1
 42
1.0
 92
       10
 66
     7
 43
1.0
 76
     1
 77
     6
 78
     2
 67
     7
 79
     5
170
     0
171
     0
290
     0
174
     0
 93
        1
 44
0.0
173
     0
291
     1
 45
0.0
1001
ACAD
1000
AcDbSavedByObjectVersion
1070
     0
  0
VISUALSTYLE
  5
37
102
{ACAD_XDICTIONARY
360
3DD9
102
}
102
{ACAD_REACTORS
330
29
102
}
330
29
100
AcDbVisualStyle
  2
Linepattern
 70
    14
 71
     2
 72
     2
 73
     0
 90
        0
 40
-0.6
 41
-30.0
 62
     5
 63
     7
421
 16777215
 74
     1
 91
        4
 64
     7
 65
   257
 75
     7
175
     7
 42
1.0
 92
        8
 66
     7
 43
1.0
 76
     1
 77
     6
 78
     2
 67
     7
 79
     5
170
     0
171
     0
290
     0
174
     0
 93
        1
 44
0.0
173
     0
291
     1
 45
0.0
1001
ACAD
1000
AcDbSavedByObjectVersion
1070
     0
  0
VISUALSTYLE
  5
40
102
{ACAD_XDICTIONARY
360
3DEB
102
}
102
{ACAD_REACTORS
330
29
102
}
330
29
100
AcDbVisualStyle
  2
OverhangOff
 70
    21
 71
     2
 72
     2
 73
     0
 90
        0
 40
-0.6
 41
-30.0
 62
     5
 63
     7
421
 16777215
 74
     1
 91
        4
 64
     7
 65
   257
 75
     1
175
     1
 42
1.0
 92
        9
 66
     7
 43
1.0
 76
     1
 77
     6
 78
     2
 67
     7
 79
     5
170
     0
171
     0
290
     0
174
     0
 93
        1
 44
0.0
173
     0
291
     1
 45
0.0
1001
ACAD
1000
AcDbSavedByObjectVersion
1070
     0
  0
VISUALSTYLE
  5
33
102
{ACAD_XDICTIONARY
360
3DD1
102
}
102
{ACAD_REACTORS
330
29
102
}
330
29
100
AcDbVisualStyle
  2
Realistic
 70
     8
 71
     2
 72
     2
 73
     0
 90
        2
 40
-0.6
 41
30.0
 62
     5
 63
     7
421
 16777215
 74
     0
 91
        0
 64
     7
 65
   257
 75
     1
175
     1
 42
1.0
 92
        8
 66
   257
 43
1.0
 76
     1
 77
     6
 78
     2
 67
     7
 79
     3
170
     0
171
     0
290
     0
174
     0
 93
       13
 44
0.0
173
     0
291
     0
 45
0.0
1001
ACAD
1000
AcDbSavedByObjectVersion
1070
     0
  0
VISUALSTYLE
  5
3E
102
{ACAD_XDICTIONARY
360
3DE7
102
}
102
{ACAD_REACTORS
330
29
102
}
330
29
100
AcDbVisualStyle
  2
Shaded
 70
    27
 71
     2
 72
     2
 73
     1
 90
        2
 40
-0.6
 41
30.0
 62
     5
 63
     7
421
 16777215
 74
     0
 91
        4
 64
     7
 65
   257
 75
     1
175
     1
 42
1.0
 92
        8
 66
   257
 43
1.0
 76
     1
 77
     6
 78
     2
 67
     8
425
  7895160
 79
     3
170
     0
171
     0
290
     0
174
     0
 93
        5
 44
0.0
173
     0
291
     0
 45
0.0
1001
ACAD
1000
AcDbSavedByObjectVersion
1070
     0
  0
VISUALSTYLE
  5
3D
102
{ACAD_XDICTIONARY
360
3DE5
102
}
102
{ACAD_REACTORS
330
29
102
}
330
29
100
AcDbVisualStyle
  2
Shaded with edges
 70
    26
 71
     2
 72
     2
 73
     1
 90
        2
 40
-0.6
 41
30.0
 62
     5
 63
     7
421
 16777215
 74
     1
 91
       10
 64
     7
 65
   257
 75
     2
175
     1
 42
1.0
 92
        8
 66
   257
 43
1.0
 76
     1
 77
     6
 78
     2
 67
     7
 79
     3
170
     0
171
     0
290
     0
174
     0
 93
        5
 44
0.0
173
     0
291
     0
 45
0.0
1001
ACAD
1000
AcDbSavedByObjectVersion
1070
     0
  0
VISUALSTYLE
  5
3A
102
{ACAD_XDICTIONARY
360
3DDF
102
}
102
{ACAD_REACTORS
330
29
102
}
330
29
100
AcDbVisualStyle
  2
Shades of Gray
 70
    23
 71
     2
 72
     2
 73
     3
 90
        0
 40
-0.6
 41
-30.0
 62
     5
 63
     7
421
 16777215
 74
     2
 91
        2
 64
     7
 65
     7
 75
     1
175
     1
 42
40.0
 92
        8
 66
     7
 43
1.0
 76
     1
 77
     6
 78
     2
 67
     7
 79
     3
170
     0
171
     0
290
     0
174
     0
 93
        1
 44
0.0
173
     0
291
     0
 45
0.0
1001
ACAD
1000
AcDbSavedByObjectVersion
1070
     0
  0
VISUALSTYLE
  5
3B
102
{ACAD_XDICTIONARY
360
3DE1
102
}
102
{ACAD_REACTORS
330
29
102
}
330
29
100
AcDbVisualStyle
  2
Sketchy
 70
    24
 71
     1
 72
     2
 73
     2
 90
        0
 40
-0.6
 41
-30.0
 62
     5
 63
     7
421
 16777215
 74
     2
 91
        2
 64
     7
 65
     7
 75
     1
175
     1
 42
40.0
 92
       11
 66
     7
 43
1.0
 76
     1
 77
     6
 78
     2
 67
     7
 79
     6
170
     0
171
     0
290
     0
174
     0
 93
        1
 44
0.0
173
     0
291
     0
 45
0.0
1001
ACAD
1000
AcDbSavedByObjectVersion
1070
     0
  0
VISUALSTYLE
  5
36
102
{ACAD_XDICTIONARY
360
3DD7
102
}
102
{ACAD_REACTORS
330
29
102
}
330
29
100
AcDbVisualStyle
  2
Thicken
 70
    13
 71
     2
 72
     2
 73
     0
 90
        0
 40
-0.6
 41
-30.0
 62
     5
 63
     7
421
 16777215
 74
     1
 91
        4
 64
     7
 65
   257
 75
     1
175
     1
 42
1.0
 92
       12
 66
     7
 43
1.0
 76
     1
 77
     6
 78
     2
 67
     7
 79
     5
170
     0
171
     0
290
     0
174
     0
 93
        1
 44
0.0
173
     0
291
     1
 45
0.0
1001
ACAD
1000
AcDbSavedByObjectVersion
1070
     0
  0
VISUALSTYLE
  5
30
102
{ACAD_XDICTIONARY
360
3DCB
102
}
102
{ACAD_REACTORS
330
29
102
}
330
29
100
AcDbVisualStyle
  2
Wireframe
 70
     5
 71
     0
 72
     2
 73
     0
 90
        0
 40
-0.6
 41
-30.0
 62
     5
 63
     7
421
 16777215
 74
     1
 91
        4
 64
     7
 65
   257
 75
     1
175
     1
 42
1.0
 92
        0
 66
   257
 43
1.0
 76
     1
 77
     6
 78
     2
 67
     7
 79
     3
170
     0
171
     0
290
     0
174
     0
 93
        1
 44
0.0
173
     0
291
     0
 45
0.0
1001
ACAD
1000
AcDbSavedByObjectVersion
1070
     0
  0
VISUALSTYLE
  5
3C
102
{ACAD_XDICTIONARY
360
3DE3
102
}
102
{ACAD_REACTORS
330
29
102
}
330
29
100
AcDbVisualStyle
  2
X-Ray
 70
    25
 71
     2
 72
     2
 73
     1
 90
        1
 40
0.5
 41
-30.0
 62
     5
 63
     7
421
 16777215
 74
     1
 91
        0
 64
     7
 65
   257
 75
     1
175
     1
 42
1.0
 92
        8
 66
     7
 43
1.0
 76
     1
 77
     6
 78
     2
 67
     7
 79
     3
170
     0
171
     0
290
     0
174
     0
 93
       13
 44
0.0
173
     0
291
     0
 45
0.0
1001
ACAD
1000
AcDbSavedByObjectVersion
1070
     0
  0
DICTIONARYVAR
  5
8C1
102
{ACAD_REACTORS
330
8BD
102
}
330
8BD
100
DictionaryVariables
280
     0
  1
1:1
  0
DICTIONARYVAR
  5
8BF
102
{ACAD_REACTORS
330
8BD
102
}
330
8BD
100
DictionaryVariables
280
     0
  1
STANDARD
  0
DICTIONARYVAR
  5
8BE
102
{ACAD_REACTORS
330
8BD
102
}
330
8BD
100
DictionaryVariables
280
     0
  1
STANDARD
  0
DICTIONARYVAR
  5
8C3
102
{ACAD_REACTORS
330
8BD
102
}
330
8BD
100
DictionaryVariables
280
     0
  1
1
  0
DICTIONARYVAR
  5
8C4
102
{ACAD_REACTORS
330
8BD
102
}
330
8BD
100
DictionaryVariables
280
     0
  1
15
  0
DICTIONARYVAR
  5
8C2
102
{ACAD_REACTORS
330
8BD
102
}
330
8BD
100
DictionaryVariables
280
     0
  1
0
  0
DICTIONARYVAR
  5
8C0
102
{ACAD_REACTORS
330
8BD
102
}
330
8BD
100
DictionaryVariables
280
     0
  1
0
  0
DICTIONARYVAR
  5
3DBC
102
{ACAD_REACTORS
330
8BD
102
}
330
8BD
100
DictionaryVariables
280
     0
  1
2
  0
DICTIONARY
  5
7BB
330
6E
100
AcDbDictionary
280
     1
281
     1
  3
ADSK_XREC_LAYOUTTHUMBNAIL
360
7BC
  0
DICTIONARY
  5
1A
330
19
100
AcDbDictionary
280
     1
281
     1
  3
BUMPTILE
360
1C
  3
DIFFUSETILE
360
1B
  3
OPACITYTILE
360
1F
  3
REFLECTIONTILE
360
1E
  3
REFRACTIONTILE
360
20
  3
SPECULARTILE
360
1D
  0
DICTIONARY
  5
12
330
11
100
AcDbDictionary
280
     1
281
     1
  3
BUMPTILE
360
14
  3
DIFFUSETILE
360
13
  3
OPACITYTILE
360
17
  3
REFLECTIONTILE
360
16
  3
REFRACTIONTILE
360
18
  3
SPECULARTILE
360
15
  0
DICTIONARY
  5
22
330
21
100
AcDbDictionary
280
     1
281
     1
  3
BUMPTILE
360
24
  3
DIFFUSETILE
360
23
  3
OPACITYTILE
360
27
  3
REFLECTIONTILE
360
26
  3
REFRACTIONTILE
360
28
  3
SPECULARTILE
360
25
  0
DICTIONARY
  5
889
330
64
100
AcDbDictionary
280
     1
281
     1
  3
ACAD_ROUNDTRIP_2008_TABLESTYLE_CELLSTYLEMAP
360
3DBD
  0
DICTIONARY
  5
3DC9
330
2F
100
AcDbDictionary
280
     1
281
     1
  3
ACAD_XREC_ROUNDTRIP
360
3DCA
  0
DICTIONARY
  5
3DEF
330
233C
100
AcDbDictionary
280
     1
281
     1
  3
ACAD_XREC_ROUNDTRIP
360
3DF0
  0
DICTIONARY
  5
3DC7
330
2E
100
AcDbDictionary
280
     1
281
     1
  3
ACAD_XREC_ROUNDTRIP
360
3DC8
  0
DICTIONARY
  5
3DD5
330
35
100
AcDbDictionary
280
     1
281
     1
  3
ACAD_XREC_ROUNDTRIP
360
3DD6
  0
DICTIONARY
  5
3DDD
330
39
100
AcDbDictionary
280
     1
281
     1
  3
ACAD_XREC_ROUNDTRIP
360
3DDE
  0
DICTIONARY
  5
3DCF
330
32
100
AcDbDictionary
280
     1
281
     1
  3
ACAD_XREC_ROUNDTRIP
360
3DD0
  0
DICTIONARY
  5
3DD3
330
34
100
AcDbDictionary
280
     1
281
     1
  3
ACAD_XREC_ROUNDTRIP
360
3DD4
  0
DICTIONARY
  5
3DED
330
41
100
AcDbDictionary
280
     1
281
     1
  3
ACAD_XREC_ROUNDTRIP
360
3DEE
  0
DICTIONARY
  5
3DDB
330
38
100
AcDbDictionary
280
     1
281
     1
  3
ACAD_XREC_ROUNDTRIP
360
3DDC
  0
DICTIONARY
  5
3DBF
330
2A
100
AcDbDictionary
280
     1
281
     1
  3
ACAD_XREC_ROUNDTRIP
360
3DC0
  0
DICTIONARY
  5
3DC1
330
2B
100
AcDbDictionary
280
     1
281
     1
  3
ACAD_XREC_ROUNDTRIP
360
3DC2
  0
DICTIONARY
  5
3DC3
330
2C
100
AcDbDictionary
280
     1
281
     1
  3
ACAD_XREC_ROUNDTRIP
360
3DC4
  0
DICTIONARY
  5
3DC5
330
2D
100
AcDbDictionary
280
     1
281
     1
  3
ACAD_XREC_ROUNDTRIP
360
3DC6
  0
DICTIONARY
  5
3DCD
330
31
100
AcDbDictionary
280
     1
281
     1
  3
ACAD_XREC_ROUNDTRIP
360
3DCE
  0
DICTIONARY
  5
3DE9
330
3F
100
AcDbDictionary
280
     1
281
     1
  3
ACAD_XREC_ROUNDTRIP
360
3DEA
  0
DICTIONARY
  5
3DD9
330
37
100
AcDbDictionary
280
     1
281
     1
  3
ACAD_XREC_ROUNDTRIP
360
3DDA
  0
DICTIONARY
  5
3DEB
330
40
100
AcDbDictionary
280
     1
281
     1
  3
ACAD_XREC_ROUNDTRIP
360
3DEC
  0
DICTIONARY
  5
3DD1
330
33
100
AcDbDictionary
280
     1
281
     1
  3
ACAD_XREC_ROUNDTRIP
360
3DD2
  0
DICTIONARY
  5
3DE7
330
3E
100
AcDbDictionary
280
     1
281
     1
  3
ACAD_XREC_ROUNDTRIP
360
3DE8
  0
DICTIONARY
  5
3DE5
330
3D
100
AcDbDictionary
280
     1
281
     1
  3
ACAD_XREC_ROUNDTRIP
360
3DE6
  0
DICTIONARY
  5
3DDF
330
3A
100
AcDbDictionary
280
     1
281
     1
  3
ACAD_XREC_ROUNDTRIP
360
3DE0
  0
DICTIONARY
  5
3DE1
330
3B
100
AcDbDictionary
280
     1
281
     1
  3
ACAD_XREC_ROUNDTRIP
360
3DE2
  0
DICTIONARY
  5
3DD7
330
36
100
AcDbDictionary
280
     1
281
     1
  3
ACAD_XREC_ROUNDTRIP
360
3DD8
  0
DICTIONARY
  5
3DCB
330
30
100
AcDbDictionary
280
     1
281
     1
  3
ACAD_XREC_ROUNDTRIP
360
3DCC
  0
DICTIONARY
  5
3DE3
330
3C
100
AcDbDictionary
280
     1
281
     1
  3
ACAD_XREC_ROUNDTRIP
360
3DE4
  0
XRECORD
  5
7BC
102
{ACAD_REACTORS
330
7BB
102
}
330
7BB
100
AcDbXrecord
280
     1
310
28000000000100007E0000000100080000000000007E0000000000000000000000010000000000000000000000000000FFFFFF000000000000000000000000000000000000000000000000000000000000000000330000006600000099000000CC000000FF00000000330000333300006633000099330000CC330000FF3300
310
0000660000336600006666000099660000CC660000FF66000000990000339900006699000099990000CC990000FF99000000CC000033CC000066CC000099CC0000CCCC0000FFCC000000FF000033FF000066FF000099FF0000CCFF0000FFFF000000003300330033006600330099003300CC003300FF003300003333003333
310
33006633330099333300CC333300FF33330000663300336633006666330099663300CC663300FF66330000993300339933006699330099993300CC993300FF99330000CC330033CC330066CC330099CC3300CCCC3300FFCC330000FF330033FF330066FF330099FF3300CCFF3300FFFF330000006600330066006600660099
310
006600CC006600FF00660000336600333366006633660099336600CC336600FF33660000666600336666006666660099666600CC666600FF66660000996600339966006699660099996600CC996600FF99660000CC660033CC660066CC660099CC6600CCCC6600FFCC660000FF660033FF660066FF660099FF6600CCFF6600
310
FFFF660000009900330099006600990099009900CC009900FF00990000339900333399006633990099339900CC339900FF33990000669900336699006666990099669900CC669900FF66990000999900339999006699990099999900CC999900FF99990000CC990033CC990066CC990099CC9900CCCC9900FFCC990000FF99
310
0033FF990066FF990099FF9900CCFF9900FFFF99000000CC003300CC006600CC009900CC00CC00CC00FF00CC000033CC003333CC006633CC009933CC00CC33CC00FF33CC000066CC003366CC006666CC009966CC00CC66CC00FF66CC000099CC003399CC006699CC009999CC00CC99CC00FF99CC0000CCCC0033CCCC0066CC
310
CC0099CCCC00CCCCCC00FFCCCC0000FFCC0033FFCC0066FFCC0099FFCC00CCFFCC00FFFFCC000000FF003300FF006600FF009900FF00CC00FF00FF00FF000033FF003333FF006633FF009933FF00CC33FF00FF33FF000066FF003366FF006666FF009966FF00CC66FF00FF66FF000099FF003399FF006699FF009999FF00CC
310
99FF00FF99FF0000CCFF0033CCFF0066CCFF0099CCFF00CCCCFF00FFCCFF0000FFFF0033FFFF0066FFFF0099FFFF00CCFFFF00FFFFFF00000000000D0D0D001A1A1A00282828003535350043434300505050005D5D5D006B6B6B00787878008686860093939300A1A1A100AEAEAE00BBBBBB00C9C9C900D6D6D600E4E4E400
310
F1F1F100FFFFFF000000000000000000000000000000000000000000000000000000000000000000000000000000000000000000000000000000000000000000000000000000000000000000000000000000000000000000000000000000000000000000000000000000000000000000000000000000000000000000000000
310
00000000000000000000000000000000000000000000000000000000000000000000000000000000000000000000000000000000000000000000000000000000000000000000000000000000000000000000000000000000000000000000000000000000000000000000000000000000000000000000000000000000000000
310
00000000000000000000000000000000000000000000000000000000000000000000000000000000000000000000000000000000000000000000000000000000000000000000000000000000000000000000000000000000000000000000000000000000000000000000000000000000000000000000000000000000000000
310
00000000000000000000000000000000000000000000000000000000000000000000000000000000000000000000000000000000000000000000000000000000000000000000000000000000000000000000000000000000000000000000000000000000000000000000000000000000000000000000000000000000000000
310
00000000000000000000000000000000000000000000000000000000000000000000000000000000000000000000000000000000000000000000000000000000000000000000000000000000000000000000000000000000000000000000000000000000000000000000000000000000000000000000000000000000000000
310
00000000000000000000000000000000000000000000000000000000000000000000000000000000000000000000000000000000000000000000000000000000000000000000000000000000000000000000000000000000000000000000000000000000000000000000000000000000000000000000000000000000000000
310
00000000000000000000000000000000000000000000000000000000000000000000000000000000000000000000000000000000000000000000000000000000000000000000000000000000000000000000000000000000000000000000000000000000000000000000000000000000000000000000000000000000000000
310
00000000000000000000000000000000000000000000000000000000000000000000000000000000000000000000000000000000000000000000000000000000000000000000000000000000000000000000000000000000000000000000000000000000000000000000000000000000000000000000000000000000000000
310
00000000000000000000000000000000000000000000000000000000000000000000000000000000000000000000000000000000000000000000000000000000000000000000000000000000000000000000000000000000000000000000000000000000000000000000000000000000000000000000000000000000000000
310
00000000000000000000000000000000000000000000000000000000000000000000000000000000000000000000000000000000000000000000000000000000000000000000000000000000000000000000000000000000000000000000000000000000000000000000000000000000000000000000000000000000000000
310
00000000000000000000000000000000000000000000000000000000000000000000000000000000000000000000000000000000000000000000000000000000000000000000000000000000000000000000000000000000000000000000000000000000000000000000000000000000000000000000000000000000000000
310
00000000000000000000000000000000000000000000000000000000000000000000000000000000000000000000000000000000000000000000000000000000000000000000000000000000000000000000000000000000000000000000000000000000000000000000000000000000000000000000000000000000000000
310
00000000000000000000000000000000000000000000000000000000000000000000000000000000000000000000000000000000000000000000000000000000000000000000000000000000000000000000000000000000000000000000000000000000000000000000000000000000000000000000000000000000000000
310
00000000000000000000000000000000000000000000000000000000000000000000000000000000000000000000000000000000000000000000000000000000000000000000000000000000000000000000000000000000000000000000000000000000000000000000000000000000000000000000000000000000000000
310
00000000000000000000000000000000000000000000000000000000000000000000000000000000000000000000000000000000000000000000000000000000000000000000000000000000000000000000000000000000000000000000000000000000000000000000000000000000000000000000000000000000000000
310
00000000000000000000000000000000000000000000000000000000000000000000000000000000000000000000000000000000000000000000000000000000000000000000000000000000000000000000000000000000000000000000000000000000000000000000000000000000000000000000000000000000000000
310
00000000000000000000000000000000000000000000000000000000000000000000000000000000000000000000000000000000000000000000000000000000000000000000000000000000000000000000000000000000000000000000000000000000000000000000000000000000000000000000000000000000000000
310
00000000000000000000000000000000000000000000000000000000000000000000000000000000000000000000000000000000000000000000000000000000000000000000000000000000000000000000000000000000000000000000000000000000000000000000000000000000000000000000000000000000000000
310
00000000000000000000000000000000000000000000000000000000000000000000000000000000000000000000000000000000000000000000000000000000000000000000000000000000000000000000000000000000000000000000000000000000000000000000000000000000000000000000000000000000000000
310
00000000000000000000000000000000000000000000000000000000000000000000000000000000000000000000000000000000000000000000000000000000000000000000000000000000000000000000000000000000000000000000000000000000000000000000000000000000000000000000000000000000000000
310
00000000000000000000000000000000000000000000000000000000000000000000000000000000000000000000000000000000000000000000000000000000000000000000000000000000000000000000000000000000000000000000000000000000000000000000000000000000000000000000000000000000000000
310
00000000000000000000000000000000000000000000000000000000000000000000000000000000000000000000000000000000000000000000000000000000000000000000000000000000000000000000000000000000000000000000000000000000000000000000000000000000000000000000000000000000000000
310
00000000000000000000000000000000000000000000000000000000000000000000000000000000000000000000000000000000000000000000000000000000000000000000000000000000000000000000000000000000000000000000000000000000000000000000000000000000000000000000000000000000000000
310
00000000000000000000000000000000000000000000000000000000000000000000000000000000000000000000000000000000000000000000000000000000000000000000000000000000000000000000000000000000000000000000000000000000000000000000000000000000000000000000000000000000000000
310
00000000000000000000000000000000000000000000000000000000000000000000000000000000000000000000000000000000000000000000000000000000000000000000000000000000000000000000000000000000000000000000000000000000000000000000000000000000000000000000000000000000000000
310
00000000000000000000000000000000000000000000000000000000000000000000000000000000000000000000000000000000000000000000000000000000000000000000000000000000000000000000000000000000000000000000000000000000000000000000000000000000000000000000000000000000000000
310
00000000000000000000000000000000000000000000000000000000000000000000000000000000000000000000000000000000000000000000000000000000000000000000000000000000000000000000000000000000000000000000000000000000000000000000000000000000000000000000000000000000000000
310
00000000000000000000000000000000000000000000000000000000000000000000000000000000000000000000000000000000000000000000000000000000000000000000000000000000000000000000000000000000000000000000000000000000000000000000000000000000000000000000000000000000000000
310
00000000000000000000000000000000000000000000000000000000000000000000000000000000000000000000000000000000000000000000000000000000000000000000000000000000000000000000000000000000000000000000000000000000000000000000000000000000000000000000000000000000000000
310
00000000000000000000000000000000000000000000000000000000000000000000000000000000000000000000000000000000000000000000000000000000000000000000000000000000000000000000000000000000000000000000000000000000000000000000000000000000000000000000000000000000000000
310
00000000000000000000000000000000000000000000000000000000000000000000000000000000000000000000000000000000000000000000000000000000000000000000000000000000000000000000000000000000000000000000000000000000000000000000000000000000000000000000000000000000000000
310
00000000000000000000000000000000000000000000000000000000000000000000000000000000000000000000000000000000000000000000000000000000000000000000000000000000000000000000000000000000000000000000000000000000000000000000000000000000000000000000000000000000000000
310
00000000000000000000000000000000000000000000000000000000000000000000000000000000000000000000000000000000000000000000000000000000000000000000000000000000000000000000000000000000000000000000000000000000000000000000000000000000000000000000000000000000000000
310
00000000000000000000000000000000000000000000000000000000000000000000000000000000000000000000000000000000000000000000000000000000000000000000000000000000000000000000000000000000000000000000000000000000000000000000000000000000000000000000000000000000000000
310
00000000000000000000000000000000000000000000000000000000000000000000000000000000000000000000000000000000000000000000000000000000000000000000000000000000000000000000000000000000000000000000000000000000000000000000000000000000000000000000000000000000000000
310
00000000000000000000000000000000000000000000000000000000000000000000000000000000000000000000000000000000000000000000000000000000000000000000000000000000000000000000000000000000000000000000000000000000000000000000000000000000000000000000000000000000000000
310
00000000000000000000000000000000000000000000000000000000000000000000000000000000000000000000000000000000000000000000000000000000000000000000000000000000000000000000000000000000000000000000000000000000000000000000000000000000000000000000000000000000000000
310
00000000000000000000000000000000000000000000000000000000000000000000000000000000000000000000000000000000000000000000000000000000000000000000000000000000000000000000000000000000000000000000000000000000000000000000000000000000000000000000000000000000000000
310
00000000000000000000000000000000000000000000000000000000000000000000000000000000000000000000000000000000000000000000000000000000000000000000000000000000000000000000000000000000000000000000000000000000000000000000000000000000000000000000000000000000000000
310
00000000000000000000000000000000000000000000000000000000000000000000000000000000000000000000000000000000000000000000000000000000000000000000000000000000000000000000000000000000000000000000000000000000000000000000000000000000000000000000000000000000000000
310
00000000000000000000000000000000000000000000000000000000000000000000000000000000000000000000000000000000000000000000000000000000000000000000000000000000000000000000000000000000000000000000000000000000000000000000000000000000000000000000000000000000000000
310
00000000000000000000000000000000000000000000000000000000000000000000000000000000000000000000000000000000000000000000000000000000000000000000000000000000000000000000000000000000000000000000000000000000000000000000000000000000000000000000000000000000000000
310
00000000000000000000000000000000000000000000000000000000000000000000000000000000000000000000000000000000000000000000000000000000000000000000000000000000000000000000000000000000000000000000000000000000000000000000000000000000000000000000000000000000000000
310
00000000000000000000000000000000000000000000000000000000000000000000000000000000000000000000000000000000000000000000000000000000000000000000000000000000000000000000000000000000000000000000000000000000000000000000000000000000000000000000000000000000000000
310
00000000000000000000000000000000000000000000000000000000000000000000000000000000000000000000000000000000000000000000000000000000000000000000000000000000000000000000000000000000000000000000000000000000000000000000000000000000000000000000000000000000000000
310
00000000000000000000000000000000000000000000000000000000000000000000000000000000000000000000000000000000000000000000000000000000000000000000000000000000000000000000000000000000000000000000000000000000000000000000000000000000000000000000000000000000000000
310
00000000000000000000000000000000000000000000000000000000000000000000000000000000000000000000000000000000000000000000000000000000000000000000000000000000000000000000000000000000000000000000000000000000000000000000000000000000000000000000000000000000000000
310
00000000000000000000000000000000000000000000000000000000000000000000000000000000000000000000000000000000000000000000000000000000000000000000000000000000000000000000000000000000000000000000000000000000000000000000000000000000000000000000000000000000000000
310
00000000000000000000000000000000000000000000000000000000000000000000000000000000000000000000000000000000000000000000000000000000000000000000000000000000000000000000000000000000000000000000000000000000000000000000000000000000000000000000000000000000000000
310
00000000000000000000000000000000000000000000000000000000000000000000000000000000000000000000000000000000000000000000000000000000000000000000000000000000000000000000000000000000000000000000000000000000000000000000000000000000000000000000000000000000000000
310
00000000000000000000000000000000000000000000000000000000000000000000000000000000000000000000000000000000000000000000000000000000000000000000000000000000000000000000000000000000000000000000000000000000000000000000000000000000000000000000000000000000000000
310
00000000000000000000000000000000000000000000000000000000000000000000000000000000000000000000000000000000000000000000000000000000000000000000000000000000000000000000000000000000000000000000000000000000000000000000000000000000000000000000000000000000000000
310
00000000000000000000000000000000000000000000000000000000000000000000000000000000000000000000000000000000000000000000000000000000000000000000000000000000000000000000000000000000000000000000000000000000000000000000000000000000000000000000000000000000000000
310
00000000000000000000000000000000000000000000000000000000000000000000000000000000000000000000000000000000000000000000000000000000000000000000000000000000000000000000000000000000000000000000000000000000000000000000000000000000000000000000000000000000000000
310
00000000000000000000000000000000000000000000000000000000000000000000000000000000000000000000000000000000000000000000000000000000000000000000000000000000000000000000000000000000000000000000000000000000000000000000000000000000000000000000000000000000000000
310
00000000000000000000000000000000000000000000000000000000000000000000000000000000000000000000000000000000000000000000000000000000000000000000000000000000000000000000000000000000000000000000000000000000000000000000000000000000000000000000000000000000000000
310
00000000000000000000000000000000000000000000000000000000000000000000000000000000000000000000000000000000000000000000000000000000000000000000000000000000000000000000000000000000000000000000000000000000000000000000000000000000000000000000000000000000000000
310
00000000000000000000000000000000000000000000000000000000000000000000000000000000000000000000000000000000000000000000000000000000000000000000000000000000000000000000000000000000000000000000000000000000000000000000000000000000000000000000000000000000000000
310
00000000000000000000000000000000000000000000000000000000000000000000000000000000000000000000000000000000000000000000000000000000000000000000000000000000000000000000000000000000000000000000000000000000000000000000000000000000000000000000000000000000000000
310
00000000000000000000000000000000000000000000000000000000000000000000000000000000000000000000000000000000000000000000000000000000000000000000000000000000000000000000000000000000000000000000000000000000000000000000000000000000000000000000000000000000000000
310
00000000000000000000000000000000000000000000000000000000000000000000000000000000000000000000000000000000000000000000000000000000000000000000000000000000000000000000000000000000000000000000000000000000000000000000000000000000000000000000000000000000000000
310
00000000000000000000000000000000000000000000000000000000000000000000000000000000000000000000000000000000000000000000000000000000000000000000000000000000000000000000000000000000000000000000000000000000000000000000000000000000000000000000000000000000000000
310
00000000000000000000000000000000000000000000000000000000000000000000000000000000000000000000000000000000000000000000000000000000000000000000000000000000000000000000000000000000000000000000000000000000000000000000000000000000000000000000000000000000000000
310
00000000000000000000000000000000000000000000000000000000000000000000000000000000000000000000000000000000000000000000000000000000000000000000000000000000000000000000000000000000000000000000000000000000000000000000000000000000000000000000000000000000000000
310
00000000000000000000000000000000000000000000000000000000000000000000000000000000000000000000000000000000000000000000000000000000000000000000000000000000000000000000000000000000000000000000000000000000000000000000000000000000000000000000000000000000000000
310
00000000000000000000000000000000000000000000000000000000000000000000000000000000000000000000000000000000000000000000000000000000000000000000000000000000000000000000000000000000000000000000000000000000000000000000000000000000000000000000000000000000000000
310
00000000000000000000000000000000000000000000000000000000000000000000000000000000000000000000000000000000000000000000000000000000000000000000000000000000000000000000000000000000000000000000000000000000000000000000000000000000000000000000000000000000000000
310
00000000000000000000000000000000000000000000000000000000000000000000000000000000000000000000000000000000000000000000000000000000000000000000000000000000000000000000000000000000000000000000000000000000000000000000000000000000000000000000000000000000000000
310
00000000000000000000000000000000000000000000000000000000000000000000000000000000000000000000000000000000000000000000000000000000000000000000000000000000000000000000000000000000000000000000000000000000000000000000000000000000000000000000000000000000000000
310
00000000000000000000000000000000000000000000000000000000000000000000000000000000000000000000000000000000000000000000000000000000000000000000000000000000000000000000000000000000000000000000000000000000000000000000000000000000000000000000000000000000000000
310
00000000000000000000000000000000000000000000000000000000000000000000000000000000000000000000000000000000000000000000000000000000000000000000000000000000000000000000000000000000000000000000000000000000000000000000000000000000000000000000000000000000000000
310
00000000000000000000000000000000000000000000000000000000000000000000000000000000000000000000000000000000000000000000000000000000000000000000000000000000000000000000000000000000000000000000000000000000000000000000000000000000000000000000000000000000000000
310
00000000000000000000000000000000000000000000000000000000000000000000000000000000000000000000000000000000000000000000000000000000000000000000000000000000000000000000000000000000000000000000000000000000000000000000000000000000000000000000000000000000000000
310
00000000000000000000000000000000000000000000000000000000000000000000000000000000000000000000000000000000000000000000000000000000000000000000000000000000000000000000000000000000000000000000000000000000000000000000000000000000000000000000000000000000000000
310
00000000000000000000000000000000000000000000000000000000000000000000000000000000000000000000000000000000000000000000000000000000000000000000000000000000000000000000000000000000000000000000000000000000000000000000000000000000000000000000000000000000000000
310
00000000000000000000000000000000000000000000000000000000000000000000000000000000000000000000000000000000000000000000000000000000000000000000000000000000000000000000000000000000000000000000000000000000000000000000000000000000000000000000000000000000000000
310
00000000000000000000000000000000000000000000000000000000000000000000000000000000000000000000000000000000000000000000000000000000000000000000000000000000000000000000000000000000000000000000000000000000000000000000000000000000000000000000000000000000000000
310
00000000000000000000000000000000000000000000000000000000000000000000000000000000000000000000000000000000000000000000000000000000000000000000000000000000000000000000000000000000000000000000000000000000000000000000000000000000000000000000000000000000000000
310
00000000000000000000000000000000000000000000000000000000000000000000000000000000000000000000000000000000000000000000000000000000000000000000000000000000000000000000000000000000000000000000000000000000000000000000000000000000000000000000000000000000000000
310
00000000000000000000000000000000000000000000000000000000000000000000000000000000000000000000000000000000000000000000000000000000000000000000000000000000000000000000000000000000000000000000000000000000000000000000000000000000000000000000000000000000000000
310
00000000000000000000000000000000000000000000000000000000000000000000000000000000000000000000000000000000000000000000000000000000000000000000000000000000000000000000000000000000000000000000000000000000000000000000000000000000000000000000000000000000000000
310
00000000000000000000000000000000000000000000000000000000000000000000000000000000000000000000000000000000000000000000000000000000000000000000000000000000000000000000000000000000000000000000000000000000000000000000000000000000000000000000000000000000000000
310
00000000000000000000000000000000000000000000000000000000000000000000000000000000000000000000000000000000000000000000000000000000000000000000000000000000000000000000000000000000000000000000000000000000000000000000000000000000000000000000000000000000000000
310
00000000000000000000000000000000000000000000000000000000000000000000000000000000000000000000000000000000000000000000000000000000000000000000000000000000000000000000000000000000000000000000000000000000000000000000000000000000000000000000000000000000000000
310
00000000000000000000000000000000000000000000000000000000000000000000000000000000000000000000000000000000000000000000000000000000000000000000000000000000000000000000000000000000000000000000000000000000000000000000000000000000000000000000000000000000000000
310
00000000000000000000000000000000000000000000000000000000000000000000000000000000000000000000000000000000000000000000000000000000000000000000000000000000000000000000000000000000000000DCDCDCDCDCDCDCDC2828DC28DCDCDCDCDCDCDCDCDCDCDCDCDCDCDCDC28282828DCDCDCDC
310
DCDCDCDCDCDCDCDCDC28DCDCDCF50000000000000000000000000000000000000000000000000000000000000000000000000000000000000000000000000000000000000000000000000000000000000000000000000000000000000000000000000000000000000000000000000000000000000000000000000000000000
310
000000000000000000000000000000000000000000000000000000000000000000000000000000000000000000000000000000000000000000000000000000000000000000000000000000000000000000000000000000000000000000DC0000000000000028280028000000000000DC000000000000000000282828280000
310
0000000000000000DC002828280000DC000000000000000000000000000000000000000000000000000000000000000000000000000000000000000000000000000000000000000000000000000000000000000000000000000000000000000000000000000000000000000000000000000000000000000000000000000000
310
0000000000000000000000000000000000000000000000000000000000000000000000000000000000000000000000000000000000000000000000000000000000000000000000000000000000000000000000000000000000000000000000DC0000000000000000000000000000000000DC00000000000000000000000000
310
00000000000000000000DC002828280000DC00000000000000000000000000000000000000000000000000000000000000000000000000000000000000000000000000000000000000000000000000000000000000000000000000000000000000000000000000000000000000000000000000000000000000000000000000
310
00000000000000000000000000000000000000000000000000000000000000000000000000000000000000000000000000000000000000000000000000000000000000000000000000000000000000000000000000000000000000000000000000DC0000000000000000000000000000000000DC0000000000000000000000
310
000000000000000000000000DC000000000000DC0000000000000000000000000000000000000000000000000000000000000000000000000000000000000000000000000000000000000000000000000000000000000000000000000000000000000000000000000000000000000000000000000000000000000000000000
310
0000000000000000000000000000000000000000000000000000000000000000000000000000000000000000000000000000000000000000000000000000000000000000000000000000DCDCDCDCDCDCDCDCDCDCDCF500000000000000000000000000DC0000000000000000000000000000DCDCDCF5DCDC28282828DC0000
310
000000000000000028282828DCDCDCDCDCDC000000DC000000000000000000000000000000000000000000000000000000000000000000000000000000000000000000000000000000000000000000000000000000000000000000000000000000000000000000000000000000000000000000000000000000000000000000
310
00000000000000000000000000000000000000000000000000000000000000000000000000000000000000000000000000000000000000000000000000000000000000000000000000000000DC0000DCDCDCDCDC000000DC00000000000000000000000000DC000000000000000000000000000000DCDCDCDC002828282800
310
000000000000000000002828282800DCDCDCDC00000000DC00000000000000000000000000000000000000000000000000000000000000000000000000000000000000000000000000000000000000000000000000000000000000000000000000000000000000000000000000000000000000000000000000000000000000
310
000000000000000000000000000000000000000000000000000000000000000000000000000000000000000000000000000000000000000000000000000000000000000000000000000000000000DC0000DC282800DC000000DC00000000000000000000000000DC00000000000000000000000000000000DCDC0000000000
310
000000000000000000000000000000000000DCDC0000000000DC0000000000000000000000000000000000000000000000000000000000000000000000000000000000000000000000000000000000000000000000000000000000000000000000000000000000000000000000000000000000000000000000000000000000
310
0000000000000000000000000000000000000000000000000000000000000000000000000000000000000000000000000000000000000000000000000000000000000000000000000000000000000000DC0000DCDCDCDCDC000000DC00000000000000000000000000DC00000000000000000000000000000000DCDC000000
310
0000000000000000000000000000000000000000DCDC0000000000DC000000000000000000000000000000000000000000000000000000000000000000000000000000000000000000000000000000000000000000000000000000000000000000000000000000000000000000000000000000000000000000000000000000
310
00000000000000000000000000000000000000000000000000000000000000000000000000000000000000000000000000000000000000000000000000000000000000000000000000000000000000000000DC00000000000000000000DC00000000000000000000000000DC00000000000000000000000000000000DCDC00
310
00000000000000000000000000000000000000000000DCDC0000000000DC0000000000000000000000000000000000DC00000000000000000000000028000000DCDC00000000000000000000000000000000000000000000000000000000000000000000000000000000000000000000000000000000000000000000000000
310
000000000000000000000000000000000000000000000000000000000000000000000000000000000000000000000000000000000000000000000000000000000000000000000000000000000000000000000000DC0000F5F5DCF5F5000000DC00000000000000000000000000DC00000000000000000000000000000000DC
310
F5F5F5F5F5F5F5F5F5F5F5F5F5F5F5F5F5F5F5F5F5F5F5F5F5DC0000000000DC0000DCDCDC00000000000000000000002828280000000000F5F5DCF5F52828000000DCDC000000DC00000000000000000000000000000000000000000000000000000000000000000000000000000000000000000000000000000000000000
310
0000000000000000000000000000000000000000000000000000000000000000000000000000000000000000000000000000000000000000000000000000000000000000000000000000000000000000000000000000DC00F50000DC0000F5F500DC00000000000000000000000000DC000000000000000000000000000000
310
00DCF5F5000000000000000000000000000000000000000000F5F5DC0000000000DC0000DC28DC0000000000000000000000002800DC000000F50000DC0000DCF50000282828DC00DCDC0000000000000000000000000000000000000000000000000000000000000000000000000000000000000000000000000000000000
310
000000000000000000000000000000000000000000000000000000000000000000000000000000000000000000000000000000000000000000000000000000000000000000000000000000000000000000000000DC000000DCF500DCDCDCDCDC0000F5DC00000000000000000000000000DC0000000000000000DCDC000000
310
000000DCF5F5000000000000000000000000000000000000000000F5F5DC0000000000DC0000DCDCDC000000000000000000000000002828DCF5F5000000DC00DCDC00F5DC002800DCDC00DC000000000000000000000000000000000000000000000000000000000000000000000000000000000000000000000000000000
310
00000000000000000000000000000000000000000000000000000000000000000000000000000000000000000000000000000000000000000000000000000000000000000000000000000000000000000000000000DCDCDCDC00DCDCDC0000DC0000DCDC00DC00000000000000000000000000DCF5F5F5F5F5F5F5DCDCDCF5
310
F5F5F5F5F5DCF5F5000000000000000000000000000000000000000000F5F5DC0000000000DC000000DC0000000000000000000000000000000000DC00000000DC00F5DCDCDCF500DCDC00F50000DC000000000000000000000000000000000000000000000000000000000000000000000000000000000000000000000000
310
00000000000000000000000000000000000000000000000000000000000000000000000000000000000000000000000000000000000000000000000000000000000000000000000000000000000000000000000000000000DC0000DCDCDC0000F5DCF5F500DCDCDCF5000000000000000000000000F5F5F5F5F5F5F5F5DCDC
310
F5F5F5F5F5F5F5DCF5F5000000000000000000000000000000000000000000F5F5F5DCDCDCDCDCDCDCDCDCDCDCDCDC00000000000000000000000000F500DCDC00F5DCF5F5DCDCDCDCDC000000DC0000DC00000000000000000000000000000000000000000000000000000000000000000000000000000000000000000000
310
0000000000000000000000000000000000000000000000000000000000000000000000000000000000000000000000000000000000000000000000000000000000000000000000000000000000000000000000000000000000DC000000F5DCDCDCF5F5DCF5DCF500DCDCF5000000000000000000000000F5F5F5F5F5F5F5F5
310
DCDCF5F5F5F5F5F5F5DCF5F5000000000000000000000000000000000000000000F5F5F50000000000DC000000DC0000DC00000000000000000000000000F50000DCF500DC0000DCDCDCF5F500DCDCDCDC0000DC00000000000000000000000000000000000000000000000000000000000000000000000000000000000000
310
00000000000000000000000000000000000000000000000000000000000000000000000000000000000000000000000000000000000000000000000000000000000000000000000000000000000000000000000000000000000000DC0000F500DC00DCF5F5DCF5F5F50000DCF5000000000000000000000000F5F5F5F5F5F5
310
F5F5F5DCDCF5F5F5F5F5F5F5F5F5000000000000000000000000000000000000000000F5F5F50000000000DC000000DC0000DC000000000000000000000000F5000000F500F5DCDCDCDCDCDCDCDCDC000000000000DC0000000000000000000000000000000000000000000000000000000000000000000000000000000000
310
000000000000000000000000000000000000000000000000000000000000000000000000000000000000000000000000000000000000000000000000000000000000000000000000000000000000000000000000000000000000000000DC0000F500DC00F5DCDCDCDCF5F5F500DC00F5000000000000000000000000000000
310
0000000000DCDC000000000000F5F5F5000000000000000000000000000000000000000000F5F5F5F5F5F5F5F5DCDCDCDCDC0000DC000000000000000000000000F5000000F5F5F5DCDCDCDCDCF5DC00F5000000000000DC000000000000000000000000000000000000000000000000000000000000000000000000000000
310
0000000000000000000000000000000000000000000000000000000000000000000000000000000000000000000000000000000000000000000000000000000000000000000000000000000000000000000000000000000000000000000000DC00DCDCDCDCDCDCDCDCDCDCDCDCDCDCDCDCDC00000000000000000000000000
310
00000000000000DCDC000000DCDCDCDCDCDCDCDCDCDCDCDCDCDCDCDCDCDCDCDCDCDCDCDCDCDCDCDCDCDCDCDCDCDCDCDC000000DC0000DC0000000000000000000000DCDCDCDCDCDCDCDCDCDCDCDCDCDCDCDCDC000000000000DC00000000000000000000000000000000000000000000000000000000000000000000000000
310
00000000000000000000000000000000000000000000000000000000000000000000000000000000000000000000000000000000000000000000000000000000000000000000000000000000000000000000000000000000000000000000000000DC0000F500DC00F5F5F5DCF5F5F50000DCF5000000000000000000000000
310
0000000000000000DCDCDC000000000000F5F5F5000000000000000000000000000000000000000000F5F5F5F5F5DCF5F5DCDCDCDCDC0000DC000000000000000000000000F5000000F5F5F5DCDCF5F500DC00DC00000000000000DC0000000000000000000000000000000000000000000000000000000000000000000000
310
000000000000000000000000000000000000000000000000000000000000000000000000000000000000000000000000000000000000000000000000000000000000000000000000000000000000000000000000000000000000000000000000000000DC000000F5DC0000F5F5DCF5DCF500DC00F500000000000000000000
310
00000000000000000000DCDC00000000000000F5F5F5000000000000000000000000000000000000000000F5F5F50000DC000000000000DC0000DC00000000000000000000000000F5000000F500DCDC00F500DC00F5DC0000000000F5DC000000000000000000000000000000000000000000000000000000000000000000
310
000000000000000000000000000000000000000000000000000000000000000000000000000000000000000000000000000000000000000000000000000000000000000000000000000000000000000000000000000000000000000000000000000000282828000000F5DCDC0000F5DCF5F500DC0000F50000000000000000
310
000000000000000000000000DCDC00000000000000F5F5F5000000000000000000000000000000000000000000F5F5F5DCDCDCDCDCDCDCDCDCDCDCDCF500000000000000000000000000F500000000DCDCDCF500DCDC2828280000000000DC0000000000000000000000000000000000000000000000000000000000000000
310
00000000000000000000000000000000000000000000000000000000000000000000000000000000000000000000000000000000000000000000000000000000000000000000000000000000000000000000000000000000000000000000000000000000000028DCDC000000F5DCDCDC00DC0000DCDC00F500000000000000
310
000000000000F5F5F5F5F5F5F5F5DCDCDCF5F5F5F5F5F5F5F5F5000000000000000000000000000000000000000000F5F5000000DC000000002828DC2828DC0000000000000000000000000000F50000DCDCDCF5DCDCDC00F52828DC00000000DC000000000000000000000000000000000000000000000000000000000000
310
0000000000000000000000000000000000000000000000000000000000000000000000000000000000000000000000000000000000000000000000000000000000000000000000000000000000000000000000000000000000000000000000000000000000000000DC28DC000000F5000000DCF5F5DC0000F5000000000000
310
0000000000000000F5F5F5F5F5F5F5F5F5DCDCF5F5F5F5F5F5F5F5F5000000000000000000000000000000000000000000F5F5000000DC000000002828DC2828DC0000000000000000000000000000F500DCF5DCDCDCDCF500F500282828DC0000DC0000000000000000000000000000000000000000000000000000000000
310
0000000000000000000000000000000000000000000000000000000000000000000000000000000000000000000000000000000000000000000000000000000000000000000000000000000000000000000000000000000000000000000000000000000000000000000000DCDCDC000000F5F50000DCDC0000F50000000000
310
00000000000000000000F5F5F5F5F5F5DCF5F5DCDCF5F5F5F5F5F5F5F5F5000000000000000000000000000000000000000000F5F5000000DC000000002828DC2828DC0000000000000000000000000000DCDCDCF5DCDCF5DC00F5000000000000000028280000000000000000000000000000000000000000000000000000
310
00000000000000000000000000000000000000000000000000000000000000000000000000000000000000000000000000000000000000000000000000000000000000000000000000000000000000000000000000000000000000000000000000000000000000000000000000DC00DCDC00000000F5F5DCDCF5F500000000
310
000000000000000000000000000000000000DCDC00DCDC00000000000000F5F5F5F5F5F5F5F5F5DCF5F5F5F5F5F5F5F5F5F5F5F5F5F5F5000000DC000000002828DC2828DC000000000000000000000000DC28280000DCF5DCF5DCF50000000000000000002828000000000000000000000000000000000000000000000000
310
00000000000000000000000000000000000000000000000000000000000000000000000000000000000000000000000000000000000000000000000000000000000000000000000000000000000000000000000000000000000000000000000000000000000000000000000000000000DC00F5DC0000000000DCDC00000000
310
0000000000000000000000000000000000000000DC0000000000000000000000000000000000000000DC000000000000000000000000000000000000DC000000002828DC0028DC0000000000000000000000000000000000DC00DC0000DC000000000000000028280000000000000000000000000000000000000000000000
310
00000000000000000000000000000000000000000000000000000000000000000000000000000000000000000000000000000000000000000000000000000000000000000000000000000000000000000000000000000000000000000000000000000000000000000000000000000000000000000000DC00000000DCDC0000
310
00000000000000000000000000000000000000000000DC0000000000000000000000000000000000002828DC000000000000000000000000000000000000DC000000000000DC0000DC00000000000000000000000000000000DCDC00DC00DCDC00000000000000DC0000000000000000000000000000000000000000000000
310
00000000000000000000000000000000000000000000000000000000000000000000000000000000000000000000000000000000000000000000000000000000000000000000000000000000000000000000000000000000000000000000000000000000000000000000000000000000000000000000000000DCDCDCDCDCDC
310
000000000000000000000000000000000000000000000000DC0000000000000000000000000000000000002828DC000000000000000000000000000000000000DC0000000000000000000000000000000000000000000000000000DCDCF5DC2828DC000000000000DC00000000000000000000000000000000000000000000
310
00000000000000000000000000000000000000000000000000000000000000000000000000000000000000000000000000000000000000000000000000000000000000000000000000000000000000000000000000000000000000000000000000000000000000000000000000000000000000000000000000000028280000
310
DCDC000000000000000000000000000000000000000000000000DC0000000000000000000000000000000000002828DC0000000000000000000000DCDCDCDCDCDCDCDC0000000000000000000000000000000000000000000000000000000000DC28280000000000DCDC000000000000000000000000000000000000000000
310
0000000000000000000000000000000000000000000000000000000000000000000000000000000000000000000000000000000000000000000000000000000000000000000000000000000000000000000000000000000000000000000000000000000000000000000000000000000000000000000000DCDCDCDCDCDCDCDC
310
DCDCDCDCDC2828282828282828280000000000000000000000000000DC0000000000000000000000000000000000000028DC0000000000000000000000DC2828282800DCDC0000000000000000000000000000000000000000000000000000000000DC000000000000DC000000000000000000000000000000000000000000
310
00000000000000000000000000000000000000000000000000000000000000000000000000000000000000000000000000000000000000000000000000000000000000000000000000000000000000000000000000000000000000000000000000000000000000000000000000000000000000000000000000DC28DC282800
310
2828DCDCDCF5DC282828282828282828DC00000000000000000000000000DC0000000000000000000000000000000000000000DC0000000000000000000000DCDCDCDCDCDCDC000000000000000000000000000000000000000000000000000000000000DC0000DCDCDCDC0000000000000000000000000000000000000000
310
000000000000000000000000000000000000000000000000000000000000000000000000000000000000000000000000000000000000000000000000000000000000000000000000000000000000000000000000000000000000000000000000000000000000000000000000000000000000000000000000000000DCDCDCDC
310
DCDCDCDCDC000000000000002828000000000000000000000000000000000000DC0000000000000000000000000000000000000000DC000000000000000000000000000000000000000000000000000000000000000000000000000000000000000000000000DCDCDC00000000000000000000000000000000000000000000
310
00000000000000000000000000000000000000000000000000000000000000000000000000000000000000000000000000000000000000000000000000000000000000000000000000000000000000000000000000000000000000000000000000000000000000000000000000000000000000000000000000000000000000
310
00000000000000000000000000000000000000000000000000000000000000000000DC0000000000000000000000000000000000000000000000000000000000000000000000000000000000000000000000000000000000000000000000000000000000000000000000000000000000000000000000000000000000000000
310
00000000000000000000000000000000000000000000000000000000000000000000000000000000000000000000000000000000000000000000000000000000000000000000000000000000000000000000000000000000000000000000000000000000000000000000000000000000000000000000000000000000000000
310
000000000000000000000000000000000000000000000000000000000000000000000000DC000000000000000000000000000000000000000000000000000000000000000000000000000000000000000000000000000000000000000000000000000000000000000000000000000000000000000000000000000000000000
310
00000000000000000000000000000000000000000000000000000000000000000000000000000000000000000000000000000000000000000000000000000000000000000000000000000000000000000000000000000000000000000000000000000000000000000000000000000000000000000000000000000000000000
310
0000000000000000000000000000000000000000000000000000000000000000000000000000DC00000000000000000000000000000000000000000000000000000000000000000000000000000000000000000000000000000000000000000000000000000000000000000000000000000000000000000000000000000000
310
00000000000000000000000000000000000000000000000000000000000000000000000000000000000000000000000000000000000000000000000000000000000000000000000000000000000000000000000000000000000000000000000000000000000000000000000000000000000000000000000000000000000000
310
00000000000000000000000000000000000000000000000000000000000000000000000000000000DC0000000000000000000000000000000000000000000000000000000000000000000000000000000000000000000000000000000000000000000000000000000000000000000000000000000000000000000000000000
310
00000000000000000000000000000000000000000000000000000000000000000000000000000000000000000000000000000000000000000000000000000000000000000000000000000000000000000000000000000000000000000000000000000000000000000000000000000000000000000000000000000000000000
310
000000000000000000000000000000000000000000000000000000000000000000000000000000000000DC000000000000000000000000000000000000000000000000000000000000000000000000000000000000000000000000000000000000000000000000000000000000000000000000000000000000000000000000
310
00000000000000000000000000000000000000000000000000000000000000000000000000000000000000000000000000000000000000000000000000000000000000000000000000000000000000000000000000000000000000000000000000000000000000000000000000000000000000000000000000000000000000
310
0000000000000000000000000000000000000000000000000000000000000000000000000000000000000000DC00000000000000000000000000000000000000000000000000000000000000000000000000000000000000000000000000000000000000000000000000000000000000000000000000000000000000000000
310
00000000000000000000000000000000000000000000000000000000000000000000000000000000000000000000000000000000000000000000000000000000000000000000000000000000000000000000000000000000000000000000000000000000000000000000000000000000000000000000000000000000000000
310
00000000000000000000000000000000000000000000000000000000000000000000000000000000000000000000DC0000000000000028282828282828282828282828282828282828282828282828282828282828282828282828282828282828282800000000000000000000000000000000000000000000000000000000
310
00000000000000000000000000000000000000000000000000000000000000000000000000000000000000000000000000000000000000000000000000000000000000000000000000000000000000000000000000000000000000000000000000000000000000000000000000000000000000000000000000000000000000
310
000000000000000000000000000000000000000000000000000000000000000000000000000000000000000000000000DC000000000000002828282828282828282828282828282828282828282828282828282828282828282828282828282828282828280000000000000000000000000000000000000000000000000000
310
00000000000000000000000000000000000000000000000000000000000000000000000000000000000000000000000000000000000000000000000000000000000000000000000000000000000000000000000000000000000000000000000000000000000000000000000000000000000000000000000000000000000000
310
0000000000000000000000000000000000000000000000000000000000000000000000000000000000000000000000000000DC00000000000000282828282828282828282828282828282828282828282800000000000000000000000000000000000000000000000000000000000000000000000000000000000000000000
310
00000000000000000000000000000000000000000000000000000000000000000000000000000000000000000000000000000000000000000000000000000000000000000000000000000000000000000000000000000000000000000000000000000000000000000000000000000000000000000000000000000000000000
310
00000000000000000000000000000000000000000000000000000000000000000000000000000000000000000000000000000000DC0000000000000028282828282828282828282828282828282828282828280000000000000000000000000000000000000000000000000000000000000000000000000000000000000000
310
00000000000000000000000000000000000000000000000000000000000000000000000000000000000000000000000000000000000000000000000000000000000000000000000000000000000000000000000000000000000000000000000000000000000000000000000000000000000000000000000000000000000000
310
000000000000000000000000000000000000000000000000000000000000000000000000000000000000000000000000000000000000DC000000000000002828282828282828282828282828282828282828000000000000000000000000000000000000000000000000000000000000000000000000000000000000000000
310
00000000000000000000000000000000000000000000000000000000000000000000000000000000000000000000000000000000000000000000000000000000000000000000000000000000000000000000000000000000000000000000000000000000000000000000000000000000000000000000000000000000000000
310
0000000000000000000000000000000000000000000000000000000000000000000000000000000000000000000000000000000000000000DCDCDCDCDCDCDCDC282828282828282828282828282828282828282800000000000000000000000000000000000000000000000000000000000000000000000000000000000000
310
00000000000000000000000000000000000000000000000000000000000000000000000000000000000000000000000000000000000000000000000000000000000000000000000000000000000000000000000000000000000000000000000000000000000000000000000000000000000000000000000000000000000000
310
00000000000000000000000000000000000000000000000000000000000000000000000000000000000000000000000000000000000000000000000000000000000000000000000000000000000000000000000000000000000000000000000000000000000000000000000000000000000000000000000000000000000000
310
00000000000000000000000000000000000000000000000000000000000000000000000000000000000000000000000000000000000000000000000000000000000000000000000000000000000000000000000000000000000000000000000000000000000000000000000000000000000000000000000000000000000000
310
00000000000000000000000000000000000000000000000000000000000000000000000000000000000000000000000000000000000000000000000000000000000000000000000000000000000000000000000000000000000000000000000000000000000000000000000000000000000000000000000000000000000000
310
00000000000000000000000000000000000000000000000000000000000000000000000000000000000000000000000000000000000000000000000000000000000000000000000000000000000000000000000000000000000000000000000000000000000000000000000000000000000000000000000000000000000000
310
00000000000000000000000000000000000000000000000000000000000000000000000000000000000000000000000000000000000000000000000000000000000000000000000000000000000000000000000000000000000000000000000000000000000000000000000000000000000000000000000000000000000000
310
00000000000000000000000000000000000000000000000000000000000000000000000000000000000000000000000000000000000000000000000000000000000000000000000000000000000000000000000000000000000000000000000000000000000000000000000000000000000000000000000000000000000000
310
00000000000000000000000000000000000000000000000000000000000000000000000000000000000000000000000000000000000000000000000000000000000000000000000000000000000000000000000000000000000000000000000000000000000000000000000000000000000000000000000000000000000000
310
00000000000000000000000000000000000000000000000000000000000000000000000000000000000000000000000000000000000000000000000000000000000000000000000000000000000000000000000000000000000000000000000000000000000000000000000000000000000000000000000000000000000000
310
00000000000000000000000000000000000000000000000000000000000000000000000000000000000000000000000000000000000000000000000000000000000000000000000000000000000000000000000000000000000000000000000000000000000000000000000000000000000000000000000000000000000000
310
00000000000000000000000000000000000000000000000000000000000000000000000000000000000000000000000000000000000000000000000000000000000000000000000000000000000000000000000000000000000000000000000000000000000000000000000000000000000000000000000000000000000000
310
00000000000000000000000000000000000000000000000000000000000000000000000000000000000000000000000000000000000000000000000000000000000000000000000000000000000000000000000000000000000000000000000000000000000000000000000000000000000000000000000000000000000000
310
00000000000000000000000000000000000000000000000000000000000000000000000000000000000000000000000000000000000000000000000000000000000000000000000000000000000000000000000000000000000000000000000000000000000000000000000000000000000000000000000000000000000000
310
00000000000000000000000000000000000000000000000000000000000000000000000000000000000000000000000000000000000000000000000000000000000000000000000000000000000000000000000000000000000000000000000000000000000000000000000000000000000000000000000000000000000000
310
00000000000000000000000000000000000000000000000000000000000000000000000000000000000000000000000000000000000000000000000000000000000000000000000000000000000000000000000000000000000000000000000000000000000000000000000000000000000000000000000000000000000000
310
00000000000000000000000000000000000000000000000000000000000000000000000000000000000000000000000000000000000000000000000000000000000000000000000000000000000000000000000000000000000000000000000000000000000000000000000000000000000000000000000000000000000000
310
00000000000000000000000000000000000000000000000000000000000000000000000000000000000000000000000000000000000000000000000000000000000000000000000000000000000000000000000000000000000000000000000000000000000000000000000000000000000000000000000000000000000000
310
00000000000000000000000000000000000000000000000000000000000000000000000000000000000000000000000000000000000000000000000000000000000000000000000000000000000000000000000000000000000000000000000000000000000000000000000000000000000000000000000000000000000000
310
00000000000000000000000000000000000000000000000000000000000000000000000000000000000000000000000000000000000000000000000000000000000000000000000000000000000000000000000000000000000000000000000000000000000000000000000000000000000000000000000000000000000000
310
00000000000000000000000000000000000000000000000000000000000000000000000000000000000000000000000000000000000000000000000000000000000000000000000000000000000000000000000000000000000000000000000000000000000000000000000000000000000000000000000000000000000000
310
00000000000000000000000000000000000000000000000000000000000000000000000000000000000000000000000000000000000000000000000000000000000000000000000000000000000000000000000000000000000000000000000000000000000000000000000000000000000000000000000000000000000000
310
00000000000000000000000000000000000000000000000000000000000000000000000000000000000000000000000000000000000000000000000000000000000000000000000000000000000000000000000000000000000000000000000000000000000000000000000000000000000000000000000000000000000000
310
00000000000000000000000000000000000000000000000000000000000000000000000000000000000000000000000000000000000000000000000000000000000000000000000000000000000000000000000000000000000000000000000000000000000000000000000000000000000000000000000000000000000000
310
00000000000000000000000000000000000000000000000000000000000000000000000000000000000000000000000000000000000000000000000000000000000000000000000000000000000000000000000000000000000000000000000000000000000000000000000000000000000000000000000000000000000000
310
00000000000000000000000000000000000000000000000000000000000000000000000000000000000000000000000000000000000000000000000000000000000000000000000000000000000000000000000000000000000000000000000000000000000000000000000000000000000000000000000000000000000000
310
00000000000000000000000000000000000000000000000000000000000000000000000000000000000000000000000000000000000000000000000000000000000000000000000000000000000000000000000000000000000000000000000000000000000000000000000000000000000000000000000000000000000000
310
00000000000000000000000000000000000000000000000000000000000000000000000000000000000000000000000000000000000000000000000000000000000000000000000000000000000000000000000000000000000000000000000000000000000000000000000000000000000000000000000000000000000000
310
00000000000000000000000000000000000000000000000000000000000000000000000000000000000000000000000000000000000000000000000000000000000000000000000000000000000000000000000000000000000000000000000000000000000000000000000000000000000000000000000000000000000000
310
00000000000000000000000000000000000000000000000000000000000000000000000000000000000000000000000000000000000000000000000000000000000000000000000000000000000000000000000000000000000000000000000000000000000000000000000000000000000000000000000000000000000000
310
00000000000000000000000000000000000000000000000000000000000000000000000000000000000000000000000000000000000000000000000000000000000000000000000000000000000000000000000000000000000000000000000000000000000000000000000000000000000000000000000000000000000000
310
00000000000000000000000000000000000000000000000000000000000000000000000000000000000000000000000000000000000000000000000000000000000000000000000000000000000000000000000000000000000000000000000000000000000000000000000000000000000000000000000000000000000000
310
00000000000000000000000000000000000000000000000000000000000000000000000000000000000000000000000000000000000000000000000000000000000000000000000000000000000000000000000000000000000000000000000000000000000000000000000000000000000000000000000000000000000000
310
00000000000000000000000000000000000000000000000000000000000000000000000000000000000000000000000000000000000000000000000000000000000000000000000000000000000000000000000000000000000000000000000000000000000000000000000000000000000000000000000000000000000000
310
00000000000000000000000000000000000000000000000000000000000000000000000000000000000000000000000000000000000000000000000000000000000000000000000000000000000000000000000000000000000000000000000000000000000000000000000000000000000000000000000000000000000000
310
00000000000000000000000000000000000000000000000000000000000000000000000000000000000000000000000000000000000000000000000000000000000000000000000000000000000000000000000000000000000000000000000000000000000000000000000000000000000000000000000000000000000000
310
00000000000000000000000000000000000000000000000000000000000000000000000000000000000000000000000000000000000000000000000000000000000000000000000000000000000000000000000000000000000000000000000000000000000000000000000000000000000000000000000000000000000000
310
00000000000000000000000000000000000000000000000000000000000000000000000000000000000000000000000000000000000000000000000000000000000000000000000000000000000000000000000000000000000000000000000000000000000000000000000000000000000000000000000000000000000000
310
00000000000000000000000000000000000000000000000000000000000000000000000000000000000000000000000000000000000000000000000000000000000000000000000000000000000000000000000000000000000000000000000000000000000000000000000000000000000000000000000000000000000000
310
00000000000000000000000000000000000000000000000000000000000000000000000000000000000000000000000000000000000000000000000000000000000000000000000000000000000000000000000000000000000000000000000000000000000000000000000000000000000000000000000000000000000000
310
00000000000000000000000000000000000000000000000000000000000000000000000000000000000000000000000000000000000000000000000000000000000000000000000000000000000000000000000000000000000000000000000000000000000000000000000000000000000000000000000000000000000000
310
00000000000000000000000000000000000000000000000000000000000000000000000000000000000000000000000000000000000000000000000000000000000000000000000000000000000000000000000000000000000000000000000000000000000000000000000000000000000000000000000000000000000000
310
00000000000000000000000000000000000000000000000000000000000000000000000000000000000000000000000000000000000000000000000000000000000000000000000000000000000000000000000000000000000000000000000000000000000000000000000000000000000000000000000000000000000000
310
00000000000000000000000000000000000000000000000000000000000000000000000000000000000000000000000000000000000000000000000000000000000000000000000000000000000000000000000000000000000000000000000000000000000000000000000000000000000000000000000000000000000000
310
00000000000000000000000000000000000000000000000000000000000000000000000000000000000000000000000000000000000000000000000000000000000000000000000000000000000000000000000000000000000000000000000000000000000000000000000000000000000000000000000000000000000000
310
00000000000000000000000000000000000000000000000000000000000000000000000000000000000000000000000000000000000000000000000000000000000000000000000000000000000000000000000000000000000000000000000000000000000000000000000000000000000000000000000000000000000000
310
00000000000000000000000000000000000000000000000000000000000000000000000000000000000000000000000000000000000000000000000000000000000000000000000000000000000000000000000000000000000000000000000000000000000000000000000000000000000000000000000000000000000000
310
00000000000000000000000000000000000000000000000000000000000000000000000000000000000000000000000000000000000000000000000000000000000000000000000000000000000000000000000000000000000000000000000000000000000000000000000000000000000000000000000000000000000000
310
00000000000000000000000000000000000000000000000000000000000000000000000000000000000000000000000000000000000000000000000000000000000000000000000000000000000000000000000000000000000000000000000000000000000000000000000000000000000000000000000000000000000000
310
00000000000000000000000000000000000000000000000000000000000000000000000000000000000000000000000000000000000000000000000000000000000000000000000000000000000000000000000000000000000000000000000000000000000000000000000000000000000000000000000000000000000000
310
00000000000000000000000000000000000000000000000000000000000000000000000000000000000000000000000000000000000000000000000000000000000000000000000000000000000000000000000000000000000000000000000000000000000000000000000000000000000000000000000000000000000000
310
00000000000000000000000000000000000000000000000000000000000000000000000000000000000000000000000000000000000000000000000000000000000000000000000000000000000000000000000000000000000000000000000000000000000000000000000000000000000000000000000000000000000000
310
00000000000000000000000000000000000000000000000000000000000000000000000000000000000000000000000000000000000000000000000000000000000000000000000000000000000000000000000000000000000000000000000000000000000000000000000000000000000000000000000000000000000000
310
00000000000000000000000000000000000000000000000000000000000000000000000000000000000000000000000000000000000000000000000000000000000000000000000000000000000000000000000000000000000000000000000000000000000000000000000000000000000000000000000000000000000000
310
00000000000000000000000000000000000000000000000000000000000000000000000000000000000000000000000000000000000000000000000000000000000000000000000000000000000000000000000000000000000000000000000000000000000000000000000000000000000000000000000000000000000000
310
00000000000000000000000000000000000000000000000000000000000000000000000000000000000000000000000000000000000000000000000000000000000000000000000000000000000000000000000000000000000000000000000000000000000000000000000000000000000000000000000000000000000000
310
00000000000000000000000000000000000000000000000000000000000000000000000000000000000000000000000000000000000000000000000000000000000000000000000000000000000000000000000000000000000000000000000000000000000000000000000000000000000000000000000000000000000000
310
00000000000000000000000000000000000000000000000000000000000000000000000000000000000000000000000000000000000000000000000000000000000000000000000000000000000000000000000000000000000000000000000000000000000000000000000000000000000000000000000000000000000000
310
00000000000000000000000000000000000000000000000000000000000000000000000000000000000000000000000000000000000000000000000000000000000000000000000000000000000000000000000000000000000000000000000000000000000000000000000000000000000000000000000000000000000000
310
00000000000000000000000000000000000000000000000000000000000000000000000000000000000000000000000000000000000000000000000000000000000000000000000000000000000000000000000000000000000000000000000000000000000000000000000000000000000000000000000000000000000000
310
00000000000000000000000000000000000000000000000000000000000000000000000000000000000000000000000000000000000000000000000000000000000000000000000000000000000000000000000000000000000000000000000000000000000000000000000000000000000000000000000000000000000000
310
00000000000000000000000000000000000000000000000000000000000000000000000000000000000000000000000000000000000000000000000000000000000000000000000000000000000000000000000000000000000000000000000000000000000000000000000000000000000000000000000000000000000000
310
00000000000000000000000000000000000000000000000000000000000000000000000000000000000000000000000000000000000000000000000000000000000000000000000000000000000000000000000000000000000000000000000000000000000000000000000000000000000000000000000000000000000000
310
00000000000000000000000000000000000000000000000000000000000000000000000000000000000000000000000000000000000000000000000000000000000000000000000000000000000000000000000000000000000000000000000000000000000000000000000000000000000000000000000000000000000000
310
00000000000000000000000000000000000000000000000000000000000000000000000000000000000000000000000000000000000000000000000000000000000000000000000000000000000000000000000000000000000000000000000000000000000000000000000000000000000000000000000000000000000000
310
00000000000000000000000000000000000000000000000000000000000000000000000000000000000000000000000000000000000000000000000000000000000000000000000000000000000000000000000000000000000000000000000000000000000000000000000000000000000000000000000000000000000000
310
00000000000000000000000000000000000000000000000000000000000000000000000000000000000000000000000000000000000000000000000000000000000000000000000000000000000000000000000000000000000000000000000000000000000000000000000000000000000000000000000000000000000000
310
00000000000000000000000000000000000000000000000000000000000000000000000000000000000000000000000000000000000000000000000000000000000000000000000000000000000000000000000000000000000000000000000000000000000000000000000000000000000000000000000000000000000000
310
00000000000000000000000000000000000000000000000000000000000000000000000000000000000000000000000000000000000000000000000000000000000000000000000000000000000000000000000000000000000000000000000000000000000000000000000000000000000000000000000000000000000000
310
00000000000000000000000000000000000000000000000000000000000000000000000000000000000000000000000000000000000000000000000000000000000000000000000000000000000000000000000000000000000000000000000000000000000000000000000000000000000000000000000000000000000000
310
00000000000000000000000000000000000000000000000000000000000000000000000000000000000000000000000000000000000000000000000000000000000000000000000000000000000000000000000000000000000000000000000000000000000000000000000000000000000000000000000000000000000000
310
00000000000000000000000000000000000000000000000000000000000000000000000000000000000000000000000000000000000000000000000000000000000000000000000000000000000000000000000000000000000000000000000000000000000000000000000000000000000000000000000000000000000000
310
00000000000000000000000000000000000000000000000000000000000000000000000000000000000000000000000000000000000000000000000000000000000000000000000000000000000000000000000000000000000000000000000000000000000000000000000000000000000000000000000000000000000000
310
00000000000000000000000000000000000000000000000000000000000000000000000000000000000000000000000000000000000000000000000000000000000000000000000000000000000000000000000000000000000000000000000000000000000000000000000000000000000000000000000000000000000000
310
00000000000000000000000000000000000000000000000000000000000000000000000000000000000000000000000000000000000000000000000000000000000000000000000000000000000000000000000000000000000000000000000000000000000000000000000000000000000000000000000000000000000000
310
00000000000000000000000000000000000000000000000000000000000000000000000000000000000000000000000000000000000000000000000000000000000000000000000000000000000000000000000000000000000000000000000000000000000000000000000000000000000000000000000000000000000000
310
00000000000000000000000000000000000000000000000000000000000000000000000000000000000000000000000000000000000000000000000000000000000000000000000000000000000000000000000000000000000000000000000000000000000000000000000000000000000000000000000000000000000000
310
00000000000000000000000000000000000000000000000000000000000000000000000000000000000000000000000000000000000000000000000000000000000000000000000000000000000000000000000000000000000000000000000000000000000000000000000000000000000000000000000000000000000000
310
00000000000000000000000000000000000000000000000000000000000000000000000000000000000000000000000000000000000000000000000000000000000000000000000000000000000000000000000000000000000000000000000000000000000000000000000000000000000000000000000000000000000000
310
00000000000000000000000000000000000000000000000000000000000000000000000000000000000000000000000000000000000000000000000000000000000000000000000000000000000000000000000000000000000000000000000000000000000000000000000000000000000000000000000000000000000000
310
00000000000000000000000000000000000000000000000000000000000000000000000000000000000000000000000000000000000000000000000000000000000000000000000000000000000000000000000000000000000000000000000000000000000000000000000000000000000000000000000000000000000000
310
00000000000000000000000000000000000000000000000000000000000000000000000000000000000000000000000000000000000000000000000000000000000000000000000000000000000000000000000000000000000000000000000000000000000000000000000000000000000000000000000000000000000000
310
00000000000000000000000000000000000000000000000000000000000000000000000000000000000000000000
  0
XRECORD
  5
1C
102
{ACAD_REACTORS
330
1A
102
}
330
1A
100
AcDbXrecord
280
     1
270
     1
271
     1
  0
XRECORD
  5
1B
102
{ACAD_REACTORS
330
1A
102
}
330
1A
100
AcDbXrecord
280
     1
270
     1
271
     1
  0
XRECORD
  5
1F
102
{ACAD_REACTORS
330
1A
102
}
330
1A
100
AcDbXrecord
280
     1
270
     1
271
     1
  0
XRECORD
  5
1E
102
{ACAD_REACTORS
330
1A
102
}
330
1A
100
AcDbXrecord
280
     1
270
     1
271
     1
  0
XRECORD
  5
20
102
{ACAD_REACTORS
330
1A
102
}
330
1A
100
AcDbXrecord
280
     1
270
     1
271
     1
  0
XRECORD
  5
1D
102
{ACAD_REACTORS
330
1A
102
}
330
1A
100
AcDbXrecord
280
     1
270
     1
271
     1
  0
XRECORD
  5
14
102
{ACAD_REACTORS
330
12
102
}
330
12
100
AcDbXrecord
280
     1
270
     1
271
     1
  0
XRECORD
  5
13
102
{ACAD_REACTORS
330
12
102
}
330
12
100
AcDbXrecord
280
     1
270
     1
271
     1
  0
XRECORD
  5
17
102
{ACAD_REACTORS
330
12
102
}
330
12
100
AcDbXrecord
280
     1
270
     1
271
     1
  0
XRECORD
  5
16
102
{ACAD_REACTORS
330
12
102
}
330
12
100
AcDbXrecord
280
     1
270
     1
271
     1
  0
XRECORD
  5
18
102
{ACAD_REACTORS
330
12
102
}
330
12
100
AcDbXrecord
280
     1
270
     1
271
     1
  0
XRECORD
  5
15
102
{ACAD_REACTORS
330
12
102
}
330
12
100
AcDbXrecord
280
     1
270
     1
271
     1
  0
XRECORD
  5
24
102
{ACAD_REACTORS
330
22
102
}
330
22
100
AcDbXrecord
280
     1
270
     1
271
     1
  0
XRECORD
  5
23
102
{ACAD_REACTORS
330
22
102
}
330
22
100
AcDbXrecord
280
     1
270
     1
271
     1
  0
XRECORD
  5
27
102
{ACAD_REACTORS
330
22
102
}
330
22
100
AcDbXrecord
280
     1
270
     1
271
     1
  0
XRECORD
  5
26
102
{ACAD_REACTORS
330
22
102
}
330
22
100
AcDbXrecord
280
     1
270
     1
271
     1
  0
XRECORD
  5
28
102
{ACAD_REACTORS
330
22
102
}
330
22
100
AcDbXrecord
280
     1
270
     1
271
     1
  0
XRECORD
  5
25
102
{ACAD_REACTORS
330
22
102
}
330
22
100
AcDbXrecord
280
     1
270
     1
271
     1
  0
CELLSTYLEMAP
  5
3DBD
102
{ACAD_REACTORS
330
889
102
}
330
889
100
AcDbCellStyleMap
 90
        3
300
CELLSTYLE
  1
TABLEFORMAT_BEGIN
 90
        5
170
     1
 91
        0
 92
    32768
 62
   257
 93
        1
300
CONTENTFORMAT
  1
CONTENTFORMAT_BEGIN
 90
        0
 91
        0
 92
      512
 93
        0
300

 40
0.0
140
1.0
 94
        5
 62
     0
340
55
144
0.25
309
CONTENTFORMAT_END
171
     0
 94
        0
309
TABLEFORMAT_END
  1
CELLSTYLE_BEGIN
 90
        1
 91
        1
300
_TITLE
309
CELLSTYLE_END
300
CELLSTYLE
  1
TABLEFORMAT_BEGIN
 90
        5
170
     1
 91
        0
 92
        0
 62
   257
 93
        1
300
CONTENTFORMAT
  1
CONTENTFORMAT_BEGIN
 90
        0
 91
        0
 92
      512
 93
        0
300

 40
0.0
140
1.0
 94
        5
 62
     0
340
55
144
0.18
309
CONTENTFORMAT_END
171
     0
 94
        0
309
TABLEFORMAT_END
  1
CELLSTYLE_BEGIN
 90
        2
 91
        1
300
_HEADER
309
CELLSTYLE_END
300
CELLSTYLE
  1
TABLEFORMAT_BEGIN
 90
        5
170
     1
 91
        0
 92
        0
 62
   257
 93
        1
300
CONTENTFORMAT
  1
CONTENTFORMAT_BEGIN
 90
        0
 91
        0
 92
      512
 93
        0
300

 40
0.0
140
1.0
 94
        2
 62
     0
340
55
144
0.18
309
CONTENTFORMAT_END
171
     0
 94
        0
309
TABLEFORMAT_END
  1
CELLSTYLE_BEGIN
 90
        3
 91
        2
300
_DATA
309
CELLSTYLE_END
  0
XRECORD
  5
3DCA
102
{ACAD_REACTORS
330
3DC9
102
}
330
3DC9
100
AcDbXrecord
280
     1
102
RTVSPropertyOp0
 70
     1
102
RTVSPropertyOp1
 70
     1
102
RTVSPropertyOp2
 70
     1
102
RTVSPropertyOp3
 70
     1
102
RTVSPropertyOp4
 70
     1
102
RTVSPropertyOp5
 70
     1
102
RTVSPropertyOp6
 70
     1
102
RTVSPropertyOp7
 70
     1
102
RTVSPropertyOp8
 70
     1
102
RTVSPropertyOp9
 70
     1
102
RTVSPropertyOp10
 70
     1
102
RTVSPropertyOp11
 70
     1
102
RTVSPropertyOp12
 70
     1
102
RTVSPropertyOp13
 70
     1
102
RTVSPropertyOp14
 70
     1
102
RTVSPropertyOp15
 70
     1
102
RTVSPropertyOp16
 70
     1
102
RTVSPropertyOp17
 70
     1
102
RTVSPropertyOp18
 70
     1
102
RTVSPropertyOp19
 70
     1
102
RTVSPropertyOp20
 70
     1
102
RTVSPropertyOp21
 70
     1
102
RTVSPropertyOp22
 70
     1
102
RTVSPropertyOp23
 70
     1
102
RTVSPropertyOp24
 70
     1
102
RTVSPropertyOp25
 70
     1
102
RTVSPropertyOp26
 70
     1
102
RTVSPropertyOp27
 70
     1
102
RTVSPropertyOp28
 70
     1
102
RTVSPropertyOp29
 70
     1
102
RTVSPropertyOp30
 70
     1
102
RTVSPropertyOp31
 70
     1
102
RTVSPropertyOp32
 70
     1
  0
XRECORD
  5
3DF0
102
{ACAD_REACTORS
330
3DEF
102
}
330
3DEF
100
AcDbXrecord
280
     1
102
RTVSPropertyOp0
 70
     1
102
RTVSPropertyOp1
 70
     1
102
RTVSPropertyOp2
 70
     1
102
RTVSPropertyOp3
 70
     1
102
RTVSPropertyOp4
 70
     1
102
RTVSPropertyOp5
 70
     1
102
RTVSPropertyOp6
 70
     1
102
RTVSPropertyOp7
 70
     1
102
RTVSPropertyOp8
 70
     1
102
RTVSPropertyOp9
 70
     1
102
RTVSPropertyOp10
 70
     1
102
RTVSPropertyOp11
 70
     1
102
RTVSPropertyOp12
 70
     1
102
RTVSPropertyOp13
 70
     1
102
RTVSPropertyOp14
 70
     1
102
RTVSPropertyOp15
 70
     1
102
RTVSPropertyOp16
 70
     1
102
RTVSPropertyOp17
 70
     1
102
RTVSPropertyOp18
 70
     1
102
RTVSPropertyOp19
 70
     1
102
RTVSPropertyOp20
 70
     1
102
RTVSPropertyOp21
 70
     1
102
RTVSPropertyOp22
 70
     1
102
RTVSPropertyOp23
 70
     1
102
RTVSPropertyOp24
 70
     1
102
RTVSPropertyOp25
 70
     1
102
RTVSPropertyOp26
 70
     1
102
RTVSPropertyOp27
 70
     1
102
RTVSPropertyOp28
 70
     1
102
RTVSPropertyOp29
 70
     1
102
RTVSPropertyOp30
 70
     1
102
RTVSPropertyOp31
 70
     1
102
RTVSPropertyOp32
 70
     1
  0
XRECORD
  5
3DC8
102
{ACAD_REACTORS
330
3DC7
102
}
330
3DC7
100
AcDbXrecord
280
     1
102
RTVSPropertyOp0
 70
     1
102
RTVSPropertyOp1
 70
     1
102
RTVSPropertyOp2
 70
     1
102
RTVSPropertyOp3
 70
     1
102
RTVSPropertyOp4
 70
     1
102
RTVSPropertyOp5
 70
     1
102
RTVSPropertyOp6
 70
     1
102
RTVSPropertyOp7
 70
     1
102
RTVSPropertyOp8
 70
     1
102
RTVSPropertyOp9
 70
     1
102
RTVSPropertyOp10
 70
     1
102
RTVSPropertyOp11
 70
     1
102
RTVSPropertyOp12
 70
     1
102
RTVSPropertyOp13
 70
     1
102
RTVSPropertyOp14
 70
     1
102
RTVSPropertyOp15
 70
     1
102
RTVSPropertyOp16
 70
     1
102
RTVSPropertyOp17
 70
     1
102
RTVSPropertyOp18
 70
     1
102
RTVSPropertyOp19
 70
     1
102
RTVSPropertyOp20
 70
     1
102
RTVSPropertyOp21
 70
     1
102
RTVSPropertyOp22
 70
     1
102
RTVSPropertyOp23
 70
     1
102
RTVSPropertyOp24
 70
     1
102
RTVSPropertyOp25
 70
     1
102
RTVSPropertyOp26
 70
     1
102
RTVSPropertyOp27
 70
     1
102
RTVSPropertyOp28
 70
     1
102
RTVSPropertyOp29
 70
     1
102
RTVSPropertyOp30
 70
     1
102
RTVSPropertyOp31
 70
     1
102
RTVSPropertyOp32
 70
     1
  0
XRECORD
  5
3DD6
102
{ACAD_REACTORS
330
3DD5
102
}
330
3DD5
100
AcDbXrecord
280
     1
102
RTVSPropertyOp0
 70
     1
102
RTVSPropertyOp1
 70
     1
102
RTVSPropertyOp2
 70
     1
102
RTVSPropertyOp3
 70
     1
102
RTVSPropertyOp4
 70
     1
102
RTVSPropertyOp5
 70
     1
102
RTVSPropertyOp6
 70
     1
102
RTVSPropertyOp7
 70
     1
102
RTVSPropertyOp8
 70
     1
102
RTVSPropertyOp9
 70
     1
102
RTVSPropertyOp10
 70
     1
102
RTVSPropertyOp11
 70
     1
102
RTVSPropertyOp12
 70
     1
102
RTVSPropertyOp13
 70
     1
102
RTVSPropertyOp14
 70
     1
102
RTVSPropertyOp15
 70
     1
102
RTVSPropertyOp16
 70
     1
102
RTVSPropertyOp17
 70
     1
102
RTVSPropertyOp18
 70
     1
102
RTVSPropertyOp19
 70
     1
102
RTVSPropertyOp20
 70
     1
102
RTVSPropertyOp21
 70
     1
102
RTVSPropertyOp22
 70
     1
102
RTVSPropertyOp23
 70
     1
102
RTVSPropertyOp24
 70
     1
102
RTVSPropertyOp25
 70
     1
102
RTVSPropertyOp26
 70
     1
102
RTVSPropertyOp27
 70
     1
102
RTVSPropertyOp28
 70
     1
102
RTVSPropertyOp29
 70
     1
102
RTVSPropertyOp30
 70
     1
102
RTVSPropertyOp31
 70
     1
102
RTVSPropertyOp32
 70
     1
  0
XRECORD
  5
3DDE
102
{ACAD_REACTORS
330
3DDD
102
}
330
3DDD
100
AcDbXrecord
280
     1
102
RTVSPropertyOp0
 70
     1
102
RTVSPropertyOp1
 70
     1
102
RTVSPropertyOp2
 70
     1
102
RTVSPropertyOp3
 70
     1
102
RTVSPropertyOp4
 70
     1
102
RTVSPropertyOp5
 70
     1
102
RTVSPropertyOp6
 70
     1
102
RTVSPropertyOp7
 70
     1
102
RTVSPropertyOp8
 70
     1
102
RTVSPropertyOp9
 70
     1
102
RTVSPropertyOp10
 70
     1
102
RTVSPropertyOp11
 70
     1
102
RTVSPropertyOp12
 70
     1
102
RTVSPropertyOp13
 70
     1
102
RTVSPropertyOp14
 70
     1
102
RTVSPropertyOp15
 70
     1
102
RTVSPropertyOp16
 70
     1
102
RTVSPropertyOp17
 70
     1
102
RTVSPropertyOp18
 70
     1
102
RTVSPropertyOp19
 70
     1
102
RTVSPropertyOp20
 70
     1
102
RTVSPropertyOp21
 70
     1
102
RTVSPropertyOp22
 70
     1
102
RTVSPropertyOp23
 70
     1
102
RTVSPropertyOp24
 70
     1
102
RTVSPropertyOp25
 70
     1
102
RTVSPropertyOp26
 70
     1
102
RTVSPropertyOp27
 70
     1
102
RTVSPropertyOp28
 70
     1
102
RTVSPropertyOp29
 70
     1
102
RTVSPropertyOp30
 70
     1
102
RTVSPropertyOp31
 70
     1
102
RTVSPropertyOp32
 70
     1
  0
XRECORD
  5
3DD0
102
{ACAD_REACTORS
330
3DCF
102
}
330
3DCF
100
AcDbXrecord
280
     1
102
RTVSPropertyOp0
 70
     1
102
RTVSPropertyOp1
 70
     1
102
RTVSPropertyOp2
 70
     1
102
RTVSPropertyOp3
 70
     1
102
RTVSPropertyOp4
 70
     1
102
RTVSPropertyOp5
 70
     1
102
RTVSPropertyOp6
 70
     1
102
RTVSPropertyOp7
 70
     1
102
RTVSPropertyOp8
 70
     1
102
RTVSPropertyOp9
 70
     1
102
RTVSPropertyOp10
 70
     1
102
RTVSPropertyOp11
 70
     1
102
RTVSPropertyOp12
 70
     1
102
RTVSPropertyOp13
 70
     1
102
RTVSPropertyOp14
 70
     1
102
RTVSPropertyOp15
 70
     1
102
RTVSPropertyOp16
 70
     1
102
RTVSPropertyOp17
 70
     1
102
RTVSPropertyOp18
 70
     1
102
RTVSPropertyOp19
 70
     1
102
RTVSPropertyOp20
 70
     1
102
RTVSPropertyOp21
 70
     1
102
RTVSPropertyOp22
 70
     1
102
RTVSPropertyOp23
 70
     1
102
RTVSPropertyOp24
 70
     1
102
RTVSPropertyOp25
 70
     1
102
RTVSPropertyOp26
 70
     1
102
RTVSPropertyOp27
 70
     1
102
RTVSPropertyOp28
 70
     1
102
RTVSPropertyOp29
 70
     1
102
RTVSPropertyOp30
 70
     1
102
RTVSPropertyOp31
 70
     1
102
RTVSPropertyOp32
 70
     1
  0
XRECORD
  5
3DD4
102
{ACAD_REACTORS
330
3DD3
102
}
330
3DD3
100
AcDbXrecord
280
     1
102
RTVSPropertyOp0
 70
     1
102
RTVSPropertyOp1
 70
     1
102
RTVSPropertyOp2
 70
     1
102
RTVSPropertyOp3
 70
     1
102
RTVSPropertyOp4
 70
     1
102
RTVSPropertyOp5
 70
     1
102
RTVSPropertyOp6
 70
     1
102
RTVSPropertyOp7
 70
     1
102
RTVSPropertyOp8
 70
     1
102
RTVSPropertyOp9
 70
     1
102
RTVSPropertyOp10
 70
     1
102
RTVSPropertyOp11
 70
     1
102
RTVSPropertyOp12
 70
     1
102
RTVSPropertyOp13
 70
     1
102
RTVSPropertyOp14
 70
     1
102
RTVSPropertyOp15
 70
     1
102
RTVSPropertyOp16
 70
     1
102
RTVSPropertyOp17
 70
     1
102
RTVSPropertyOp18
 70
     1
102
RTVSPropertyOp19
 70
     1
102
RTVSPropertyOp20
 70
     1
102
RTVSPropertyOp21
 70
     1
102
RTVSPropertyOp22
 70
     1
102
RTVSPropertyOp23
 70
     1
102
RTVSPropertyOp24
 70
     1
102
RTVSPropertyOp25
 70
     1
102
RTVSPropertyOp26
 70
     1
102
RTVSPropertyOp27
 70
     1
102
RTVSPropertyOp28
 70
     1
102
RTVSPropertyOp29
 70
     1
102
RTVSPropertyOp30
 70
     1
102
RTVSPropertyOp31
 70
     1
102
RTVSPropertyOp32
 70
     1
  0
XRECORD
  5
3DEE
102
{ACAD_REACTORS
330
3DED
102
}
330
3DED
100
AcDbXrecord
280
     1
102
RTVSPropertyOp0
 70
     0
102
RTVSPropertyOp1
 70
     0
102
RTVSPropertyOp2
 70
     0
102
RTVSPropertyOp3
 70
     0
102
RTVSPropertyOp4
 70
     0
102
RTVSPropertyOp5
 70
     0
102
RTVSPropertyOp6
 70
     0
102
RTVSPropertyOp7
 70
     0
102
RTVSPropertyOp8
 70
     0
102
RTVSPropertyOp9
 70
     0
102
RTVSPropertyOp10
 70
     0
102
RTVSPropertyOp11
 70
     0
102
RTVSPropertyOp12
 70
     0
102
RTVSPropertyOp13
 70
     0
102
RTVSPropertyOp14
 70
     2
102
RTVSPropertyOp15
 70
     0
102
RTVSPropertyOp16
 70
     0
102
RTVSPropertyOp17
 70
     0
102
RTVSPropertyOp18
 70
     0
102
RTVSPropertyOp19
 70
     0
102
RTVSPropertyOp20
 70
     0
102
RTVSPropertyOp21
 70
     0
102
RTVSPropertyOp22
 70
     0
102
RTVSPropertyOp23
 70
     0
102
RTVSPropertyOp24
 70
     0
102
RTVSPropertyOp25
 70
     0
102
RTVSPropertyOp26
 70
     0
102
RTVSPropertyOp27
 70
     0
102
RTVSPropertyOp28
 70
     0
102
RTVSPropertyOp29
 70
     0
102
RTVSPropertyOp30
 70
     0
102
RTVSPropertyOp31
 70
     0
102
RTVSPropertyOp32
 70
     0
  0
XRECORD
  5
3DDC
102
{ACAD_REACTORS
330
3DDB
102
}
330
3DDB
100
AcDbXrecord
280
     1
102
RTVSPropertyOp0
 70
     1
102
RTVSPropertyOp1
 70
     1
102
RTVSPropertyOp2
 70
     1
102
RTVSPropertyOp3
 70
     1
102
RTVSPropertyOp4
 70
     1
102
RTVSPropertyOp5
 70
     1
102
RTVSPropertyOp6
 70
     1
102
RTVSPropertyOp7
 70
     1
102
RTVSPropertyOp8
 70
     1
102
RTVSPropertyOp9
 70
     1
102
RTVSPropertyOp10
 70
     1
102
RTVSPropertyOp11
 70
     1
102
RTVSPropertyOp12
 70
     1
102
RTVSPropertyOp13
 70
     1
102
RTVSPropertyOp14
 70
     1
102
RTVSPropertyOp15
 70
     1
102
RTVSPropertyOp16
 70
     1
102
RTVSPropertyOp17
 70
     1
102
RTVSPropertyOp18
 70
     1
102
RTVSPropertyOp19
 70
     1
102
RTVSPropertyOp20
 70
     1
102
RTVSPropertyOp21
 70
     1
102
RTVSPropertyOp22
 70
     1
102
RTVSPropertyOp23
 70
     1
102
RTVSPropertyOp24
 70
     1
102
RTVSPropertyOp25
 70
     1
102
RTVSPropertyOp26
 70
     1
102
RTVSPropertyOp27
 70
     1
102
RTVSPropertyOp28
 70
     1
102
RTVSPropertyOp29
 70
     1
102
RTVSPropertyOp30
 70
     1
102
RTVSPropertyOp31
 70
     1
102
RTVSPropertyOp32
 70
     1
  0
XRECORD
  5
3DC0
102
{ACAD_REACTORS
330
3DBF
102
}
330
3DBF
100
AcDbXrecord
280
     1
102
RTVSPropertyOp0
 70
     1
102
RTVSPropertyOp1
 70
     1
102
RTVSPropertyOp2
 70
     1
102
RTVSPropertyOp3
 70
     1
102
RTVSPropertyOp4
 70
     1
102
RTVSPropertyOp5
 70
     1
102
RTVSPropertyOp6
 70
     1
102
RTVSPropertyOp7
 70
     1
102
RTVSPropertyOp8
 70
     1
102
RTVSPropertyOp9
 70
     1
102
RTVSPropertyOp10
 70
     1
102
RTVSPropertyOp11
 70
     1
102
RTVSPropertyOp12
 70
     1
102
RTVSPropertyOp13
 70
     1
102
RTVSPropertyOp14
 70
     1
102
RTVSPropertyOp15
 70
     1
102
RTVSPropertyOp16
 70
     1
102
RTVSPropertyOp17
 70
     1
102
RTVSPropertyOp18
 70
     1
102
RTVSPropertyOp19
 70
     1
102
RTVSPropertyOp20
 70
     1
102
RTVSPropertyOp21
 70
     1
102
RTVSPropertyOp22
 70
     1
102
RTVSPropertyOp23
 70
     1
102
RTVSPropertyOp24
 70
     1
102
RTVSPropertyOp25
 70
     1
102
RTVSPropertyOp26
 70
     1
102
RTVSPropertyOp27
 70
     1
102
RTVSPropertyOp28
 70
     1
102
RTVSPropertyOp29
 70
     1
102
RTVSPropertyOp30
 70
     1
102
RTVSPropertyOp31
 70
     1
102
RTVSPropertyOp32
 70
     1
  0
XRECORD
  5
3DC2
102
{ACAD_REACTORS
330
3DC1
102
}
330
3DC1
100
AcDbXrecord
280
     1
102
RTVSPropertyOp0
 70
     1
102
RTVSPropertyOp1
 70
     1
102
RTVSPropertyOp2
 70
     1
102
RTVSPropertyOp3
 70
     1
102
RTVSPropertyOp4
 70
     1
102
RTVSPropertyOp5
 70
     1
102
RTVSPropertyOp6
 70
     1
102
RTVSPropertyOp7
 70
     1
102
RTVSPropertyOp8
 70
     1
102
RTVSPropertyOp9
 70
     1
102
RTVSPropertyOp10
 70
     1
102
RTVSPropertyOp11
 70
     1
102
RTVSPropertyOp12
 70
     1
102
RTVSPropertyOp13
 70
     1
102
RTVSPropertyOp14
 70
     1
102
RTVSPropertyOp15
 70
     1
102
RTVSPropertyOp16
 70
     1
102
RTVSPropertyOp17
 70
     1
102
RTVSPropertyOp18
 70
     1
102
RTVSPropertyOp19
 70
     1
102
RTVSPropertyOp20
 70
     1
102
RTVSPropertyOp21
 70
     1
102
RTVSPropertyOp22
 70
     1
102
RTVSPropertyOp23
 70
     1
102
RTVSPropertyOp24
 70
     1
102
RTVSPropertyOp25
 70
     1
102
RTVSPropertyOp26
 70
     1
102
RTVSPropertyOp27
 70
     1
102
RTVSPropertyOp28
 70
     1
102
RTVSPropertyOp29
 70
     1
102
RTVSPropertyOp30
 70
     1
102
RTVSPropertyOp31
 70
     1
102
RTVSPropertyOp32
 70
     1
  0
XRECORD
  5
3DC4
102
{ACAD_REACTORS
330
3DC3
102
}
330
3DC3
100
AcDbXrecord
280
     1
102
RTVSPropertyOp0
 70
     1
102
RTVSPropertyOp1
 70
     1
102
RTVSPropertyOp2
 70
     1
102
RTVSPropertyOp3
 70
     1
102
RTVSPropertyOp4
 70
     1
102
RTVSPropertyOp5
 70
     1
102
RTVSPropertyOp6
 70
     1
102
RTVSPropertyOp7
 70
     1
102
RTVSPropertyOp8
 70
     1
102
RTVSPropertyOp9
 70
     1
102
RTVSPropertyOp10
 70
     1
102
RTVSPropertyOp11
 70
     1
102
RTVSPropertyOp12
 70
     1
102
RTVSPropertyOp13
 70
     1
102
RTVSPropertyOp14
 70
     1
102
RTVSPropertyOp15
 70
     1
102
RTVSPropertyOp16
 70
     1
102
RTVSPropertyOp17
 70
     1
102
RTVSPropertyOp18
 70
     1
102
RTVSPropertyOp19
 70
     1
102
RTVSPropertyOp20
 70
     1
102
RTVSPropertyOp21
 70
     1
102
RTVSPropertyOp22
 70
     1
102
RTVSPropertyOp23
 70
     1
102
RTVSPropertyOp24
 70
     1
102
RTVSPropertyOp25
 70
     1
102
RTVSPropertyOp26
 70
     1
102
RTVSPropertyOp27
 70
     1
102
RTVSPropertyOp28
 70
     1
102
RTVSPropertyOp29
 70
     1
102
RTVSPropertyOp30
 70
     1
102
RTVSPropertyOp31
 70
     1
102
RTVSPropertyOp32
 70
     1
  0
XRECORD
  5
3DC6
102
{ACAD_REACTORS
330
3DC5
102
}
330
3DC5
100
AcDbXrecord
280
     1
102
RTVSPropertyOp0
 70
     1
102
RTVSPropertyOp1
 70
     1
102
RTVSPropertyOp2
 70
     1
102
RTVSPropertyOp3
 70
     1
102
RTVSPropertyOp4
 70
     1
102
RTVSPropertyOp5
 70
     1
102
RTVSPropertyOp6
 70
     1
102
RTVSPropertyOp7
 70
     1
102
RTVSPropertyOp8
 70
     1
102
RTVSPropertyOp9
 70
     1
102
RTVSPropertyOp10
 70
     1
102
RTVSPropertyOp11
 70
     1
102
RTVSPropertyOp12
 70
     1
102
RTVSPropertyOp13
 70
     1
102
RTVSPropertyOp14
 70
     1
102
RTVSPropertyOp15
 70
     1
102
RTVSPropertyOp16
 70
     1
102
RTVSPropertyOp17
 70
     1
102
RTVSPropertyOp18
 70
     1
102
RTVSPropertyOp19
 70
     1
102
RTVSPropertyOp20
 70
     1
102
RTVSPropertyOp21
 70
     1
102
RTVSPropertyOp22
 70
     1
102
RTVSPropertyOp23
 70
     1
102
RTVSPropertyOp24
 70
     1
102
RTVSPropertyOp25
 70
     1
102
RTVSPropertyOp26
 70
     1
102
RTVSPropertyOp27
 70
     1
102
RTVSPropertyOp28
 70
     1
102
RTVSPropertyOp29
 70
     1
102
RTVSPropertyOp30
 70
     1
102
RTVSPropertyOp31
 70
     1
102
RTVSPropertyOp32
 70
     1
  0
XRECORD
  5
3DCE
102
{ACAD_REACTORS
330
3DCD
102
}
330
3DCD
100
AcDbXrecord
280
     1
102
RTVSPropertyOp0
 70
     1
102
RTVSPropertyOp1
 70
     1
102
RTVSPropertyOp2
 70
     1
102
RTVSPropertyOp3
 70
     1
102
RTVSPropertyOp4
 70
     1
102
RTVSPropertyOp5
 70
     1
102
RTVSPropertyOp6
 70
     1
102
RTVSPropertyOp7
 70
     1
102
RTVSPropertyOp8
 70
     1
102
RTVSPropertyOp9
 70
     1
102
RTVSPropertyOp10
 70
     1
102
RTVSPropertyOp11
 70
     1
102
RTVSPropertyOp12
 70
     1
102
RTVSPropertyOp13
 70
     1
102
RTVSPropertyOp14
 70
     1
102
RTVSPropertyOp15
 70
     1
102
RTVSPropertyOp16
 70
     1
102
RTVSPropertyOp17
 70
     1
102
RTVSPropertyOp18
 70
     1
102
RTVSPropertyOp19
 70
     1
102
RTVSPropertyOp20
 70
     1
102
RTVSPropertyOp21
 70
     1
102
RTVSPropertyOp22
 70
     1
102
RTVSPropertyOp23
 70
     1
102
RTVSPropertyOp24
 70
     1
102
RTVSPropertyOp25
 70
     1
102
RTVSPropertyOp26
 70
     1
102
RTVSPropertyOp27
 70
     1
102
RTVSPropertyOp28
 70
     1
102
RTVSPropertyOp29
 70
     1
102
RTVSPropertyOp30
 70
     1
102
RTVSPropertyOp31
 70
     1
102
RTVSPropertyOp32
 70
     1
  0
XRECORD
  5
3DEA
102
{ACAD_REACTORS
330
3DE9
102
}
330
3DE9
100
AcDbXrecord
280
     1
102
RTVSPropertyOp0
 70
     0
102
RTVSPropertyOp1
 70
     0
102
RTVSPropertyOp2
 70
     0
102
RTVSPropertyOp3
 70
     0
102
RTVSPropertyOp4
 70
     0
102
RTVSPropertyOp5
 70
     0
102
RTVSPropertyOp6
 70
     0
102
RTVSPropertyOp7
 70
     0
102
RTVSPropertyOp8
 70
     0
102
RTVSPropertyOp9
 70
     0
102
RTVSPropertyOp10
 70
     0
102
RTVSPropertyOp11
 70
     0
102
RTVSPropertyOp12
 70
     0
102
RTVSPropertyOp13
 70
     0
102
RTVSPropertyOp14
 70
     2
102
RTVSPropertyOp15
 70
     0
102
RTVSPropertyOp16
 70
     0
102
RTVSPropertyOp17
 70
     0
102
RTVSPropertyOp18
 70
     0
102
RTVSPropertyOp19
 70
     0
102
RTVSPropertyOp20
 70
     0
102
RTVSPropertyOp21
 70
     0
102
RTVSPropertyOp22
 70
     0
102
RTVSPropertyOp23
 70
     0
102
RTVSPropertyOp24
 70
     0
102
RTVSPropertyOp25
 70
     0
102
RTVSPropertyOp26
 70
     0
102
RTVSPropertyOp27
 70
     0
102
RTVSPropertyOp28
 70
     0
102
RTVSPropertyOp29
 70
     0
102
RTVSPropertyOp30
 70
     0
102
RTVSPropertyOp31
 70
     0
102
RTVSPropertyOp32
 70
     0
  0
XRECORD
  5
3DDA
102
{ACAD_REACTORS
330
3DD9
102
}
330
3DD9
100
AcDbXrecord
280
     1
102
RTVSPropertyOp0
 70
     1
102
RTVSPropertyOp1
 70
     1
102
RTVSPropertyOp2
 70
     1
102
RTVSPropertyOp3
 70
     1
102
RTVSPropertyOp4
 70
     1
102
RTVSPropertyOp5
 70
     1
102
RTVSPropertyOp6
 70
     1
102
RTVSPropertyOp7
 70
     1
102
RTVSPropertyOp8
 70
     1
102
RTVSPropertyOp9
 70
     1
102
RTVSPropertyOp10
 70
     1
102
RTVSPropertyOp11
 70
     1
102
RTVSPropertyOp12
 70
     1
102
RTVSPropertyOp13
 70
     1
102
RTVSPropertyOp14
 70
     1
102
RTVSPropertyOp15
 70
     1
102
RTVSPropertyOp16
 70
     1
102
RTVSPropertyOp17
 70
     1
102
RTVSPropertyOp18
 70
     1
102
RTVSPropertyOp19
 70
     1
102
RTVSPropertyOp20
 70
     1
102
RTVSPropertyOp21
 70
     1
102
RTVSPropertyOp22
 70
     1
102
RTVSPropertyOp23
 70
     1
102
RTVSPropertyOp24
 70
     1
102
RTVSPropertyOp25
 70
     1
102
RTVSPropertyOp26
 70
     1
102
RTVSPropertyOp27
 70
     1
102
RTVSPropertyOp28
 70
     1
102
RTVSPropertyOp29
 70
     1
102
RTVSPropertyOp30
 70
     1
102
RTVSPropertyOp31
 70
     1
102
RTVSPropertyOp32
 70
     1
  0
XRECORD
  5
3DEC
102
{ACAD_REACTORS
330
3DEB
102
}
330
3DEB
100
AcDbXrecord
280
     1
102
RTVSPropertyOp0
 70
     0
102
RTVSPropertyOp1
 70
     0
102
RTVSPropertyOp2
 70
     0
102
RTVSPropertyOp3
 70
     0
102
RTVSPropertyOp4
 70
     0
102
RTVSPropertyOp5
 70
     0
102
RTVSPropertyOp6
 70
     0
102
RTVSPropertyOp7
 70
     0
102
RTVSPropertyOp8
 70
     0
102
RTVSPropertyOp9
 70
     0
102
RTVSPropertyOp10
 70
     0
102
RTVSPropertyOp11
 70
     0
102
RTVSPropertyOp12
 70
     0
102
RTVSPropertyOp13
 70
     0
102
RTVSPropertyOp14
 70
     2
102
RTVSPropertyOp15
 70
     0
102
RTVSPropertyOp16
 70
     0
102
RTVSPropertyOp17
 70
     0
102
RTVSPropertyOp18
 70
     0
102
RTVSPropertyOp19
 70
     0
102
RTVSPropertyOp20
 70
     0
102
RTVSPropertyOp21
 70
     0
102
RTVSPropertyOp22
 70
     0
102
RTVSPropertyOp23
 70
     0
102
RTVSPropertyOp24
 70
     0
102
RTVSPropertyOp25
 70
     0
102
RTVSPropertyOp26
 70
     0
102
RTVSPropertyOp27
 70
     0
102
RTVSPropertyOp28
 70
     0
102
RTVSPropertyOp29
 70
     0
102
RTVSPropertyOp30
 70
     0
102
RTVSPropertyOp31
 70
     0
102
RTVSPropertyOp32
 70
     0
  0
XRECORD
  5
3DD2
102
{ACAD_REACTORS
330
3DD1
102
}
330
3DD1
100
AcDbXrecord
280
     1
102
RTVSPropertyOp0
 70
     1
102
RTVSPropertyOp1
 70
     1
102
RTVSPropertyOp2
 70
     1
102
RTVSPropertyOp3
 70
     1
102
RTVSPropertyOp4
 70
     1
102
RTVSPropertyOp5
 70
     1
102
RTVSPropertyOp6
 70
     1
102
RTVSPropertyOp7
 70
     1
102
RTVSPropertyOp8
 70
     1
102
RTVSPropertyOp9
 70
     1
102
RTVSPropertyOp10
 70
     1
102
RTVSPropertyOp11
 70
     1
102
RTVSPropertyOp12
 70
     1
102
RTVSPropertyOp13
 70
     1
102
RTVSPropertyOp14
 70
     1
102
RTVSPropertyOp15
 70
     1
102
RTVSPropertyOp16
 70
     1
102
RTVSPropertyOp17
 70
     1
102
RTVSPropertyOp18
 70
     1
102
RTVSPropertyOp19
 70
     1
102
RTVSPropertyOp20
 70
     1
102
RTVSPropertyOp21
 70
     1
102
RTVSPropertyOp22
 70
     1
102
RTVSPropertyOp23
 70
     1
102
RTVSPropertyOp24
 70
     1
102
RTVSPropertyOp25
 70
     1
102
RTVSPropertyOp26
 70
     1
102
RTVSPropertyOp27
 70
     1
102
RTVSPropertyOp28
 70
     1
102
RTVSPropertyOp29
 70
     1
102
RTVSPropertyOp30
 70
     1
102
RTVSPropertyOp31
 70
     1
102
RTVSPropertyOp32
 70
     1
  0
XRECORD
  5
3DE8
102
{ACAD_REACTORS
330
3DE7
102
}
330
3DE7
100
AcDbXrecord
280
     1
102
RTVSPropertyOp0
 70
     1
102
RTVSPropertyOp1
 70
     1
102
RTVSPropertyOp2
 70
     1
102
RTVSPropertyOp3
 70
     1
102
RTVSPropertyOp4
 70
     1
102
RTVSPropertyOp5
 70
     1
102
RTVSPropertyOp6
 70
     1
102
RTVSPropertyOp7
 70
     1
102
RTVSPropertyOp8
 70
     1
102
RTVSPropertyOp9
 70
     1
102
RTVSPropertyOp10
 70
     1
102
RTVSPropertyOp11
 70
     1
102
RTVSPropertyOp12
 70
     1
102
RTVSPropertyOp13
 70
     1
102
RTVSPropertyOp14
 70
     1
102
RTVSPropertyOp15
 70
     1
102
RTVSPropertyOp16
 70
     1
102
RTVSPropertyOp17
 70
     1
102
RTVSPropertyOp18
 70
     1
102
RTVSPropertyOp19
 70
     1
102
RTVSPropertyOp20
 70
     1
102
RTVSPropertyOp21
 70
     1
102
RTVSPropertyOp22
 70
     1
102
RTVSPropertyOp23
 70
     1
102
RTVSPropertyOp24
 70
     1
102
RTVSPropertyOp25
 70
     1
102
RTVSPropertyOp26
 70
     1
102
RTVSPropertyOp27
 70
     1
102
RTVSPropertyOp28
 70
     1
102
RTVSPropertyOp29
 70
     1
102
RTVSPropertyOp30
 70
     1
102
RTVSPropertyOp31
 70
     1
102
RTVSPropertyOp32
 70
     1
  0
XRECORD
  5
3DE6
102
{ACAD_REACTORS
330
3DE5
102
}
330
3DE5
100
AcDbXrecord
280
     1
102
RTVSPropertyOp0
 70
     1
102
RTVSPropertyOp1
 70
     1
102
RTVSPropertyOp2
 70
     1
102
RTVSPropertyOp3
 70
     1
102
RTVSPropertyOp4
 70
     1
102
RTVSPropertyOp5
 70
     1
102
RTVSPropertyOp6
 70
     1
102
RTVSPropertyOp7
 70
     1
102
RTVSPropertyOp8
 70
     1
102
RTVSPropertyOp9
 70
     1
102
RTVSPropertyOp10
 70
     1
102
RTVSPropertyOp11
 70
     1
102
RTVSPropertyOp12
 70
     1
102
RTVSPropertyOp13
 70
     1
102
RTVSPropertyOp14
 70
     1
102
RTVSPropertyOp15
 70
     1
102
RTVSPropertyOp16
 70
     1
102
RTVSPropertyOp17
 70
     1
102
RTVSPropertyOp18
 70
     1
102
RTVSPropertyOp19
 70
     1
102
RTVSPropertyOp20
 70
     1
102
RTVSPropertyOp21
 70
     1
102
RTVSPropertyOp22
 70
     1
102
RTVSPropertyOp23
 70
     1
102
RTVSPropertyOp24
 70
     1
102
RTVSPropertyOp25
 70
     1
102
RTVSPropertyOp26
 70
     1
102
RTVSPropertyOp27
 70
     1
102
RTVSPropertyOp28
 70
     1
102
RTVSPropertyOp29
 70
     1
102
RTVSPropertyOp30
 70
     1
102
RTVSPropertyOp31
 70
     1
102
RTVSPropertyOp32
 70
     1
  0
XRECORD
  5
3DE0
102
{ACAD_REACTORS
330
3DDF
102
}
330
3DDF
100
AcDbXrecord
280
     1
102
RTVSPropertyOp0
 70
     1
102
RTVSPropertyOp1
 70
     1
102
RTVSPropertyOp2
 70
     1
102
RTVSPropertyOp3
 70
     1
102
RTVSPropertyOp4
 70
     1
102
RTVSPropertyOp5
 70
     1
102
RTVSPropertyOp6
 70
     1
102
RTVSPropertyOp7
 70
     1
102
RTVSPropertyOp8
 70
     1
102
RTVSPropertyOp9
 70
     1
102
RTVSPropertyOp10
 70
     1
102
RTVSPropertyOp11
 70
     1
102
RTVSPropertyOp12
 70
     1
102
RTVSPropertyOp13
 70
     1
102
RTVSPropertyOp14
 70
     1
102
RTVSPropertyOp15
 70
     1
102
RTVSPropertyOp16
 70
     1
102
RTVSPropertyOp17
 70
     1
102
RTVSPropertyOp18
 70
     1
102
RTVSPropertyOp19
 70
     1
102
RTVSPropertyOp20
 70
     1
102
RTVSPropertyOp21
 70
     1
102
RTVSPropertyOp22
 70
     1
102
RTVSPropertyOp23
 70
     1
102
RTVSPropertyOp24
 70
     1
102
RTVSPropertyOp25
 70
     1
102
RTVSPropertyOp26
 70
     1
102
RTVSPropertyOp27
 70
     1
102
RTVSPropertyOp28
 70
     1
102
RTVSPropertyOp29
 70
     1
102
RTVSPropertyOp30
 70
     1
102
RTVSPropertyOp31
 70
     1
102
RTVSPropertyOp32
 70
     1
  0
XRECORD
  5
3DE2
102
{ACAD_REACTORS
330
3DE1
102
}
330
3DE1
100
AcDbXrecord
280
     1
102
RTVSPropertyOp0
 70
     1
102
RTVSPropertyOp1
 70
     1
102
RTVSPropertyOp2
 70
     1
102
RTVSPropertyOp3
 70
     1
102
RTVSPropertyOp4
 70
     1
102
RTVSPropertyOp5
 70
     1
102
RTVSPropertyOp6
 70
     1
102
RTVSPropertyOp7
 70
     1
102
RTVSPropertyOp8
 70
     1
102
RTVSPropertyOp9
 70
     1
102
RTVSPropertyOp10
 70
     1
102
RTVSPropertyOp11
 70
     1
102
RTVSPropertyOp12
 70
     1
102
RTVSPropertyOp13
 70
     1
102
RTVSPropertyOp14
 70
     1
102
RTVSPropertyOp15
 70
     1
102
RTVSPropertyOp16
 70
     1
102
RTVSPropertyOp17
 70
     1
102
RTVSPropertyOp18
 70
     1
102
RTVSPropertyOp19
 70
     1
102
RTVSPropertyOp20
 70
     1
102
RTVSPropertyOp21
 70
     1
102
RTVSPropertyOp22
 70
     1
102
RTVSPropertyOp23
 70
     1
102
RTVSPropertyOp24
 70
     1
102
RTVSPropertyOp25
 70
     1
102
RTVSPropertyOp26
 70
     1
102
RTVSPropertyOp27
 70
     1
102
RTVSPropertyOp28
 70
     1
102
RTVSPropertyOp29
 70
     1
102
RTVSPropertyOp30
 70
     1
102
RTVSPropertyOp31
 70
     1
102
RTVSPropertyOp32
 70
     1
  0
XRECORD
  5
3DD8
102
{ACAD_REACTORS
330
3DD7
102
}
330
3DD7
100
AcDbXrecord
280
     1
102
RTVSPropertyOp0
 70
     1
102
RTVSPropertyOp1
 70
     1
102
RTVSPropertyOp2
 70
     1
102
RTVSPropertyOp3
 70
     1
102
RTVSPropertyOp4
 70
     1
102
RTVSPropertyOp5
 70
     1
102
RTVSPropertyOp6
 70
     1
102
RTVSPropertyOp7
 70
     1
102
RTVSPropertyOp8
 70
     1
102
RTVSPropertyOp9
 70
     1
102
RTVSPropertyOp10
 70
     1
102
RTVSPropertyOp11
 70
     1
102
RTVSPropertyOp12
 70
     1
102
RTVSPropertyOp13
 70
     1
102
RTVSPropertyOp14
 70
     1
102
RTVSPropertyOp15
 70
     1
102
RTVSPropertyOp16
 70
     1
102
RTVSPropertyOp17
 70
     1
102
RTVSPropertyOp18
 70
     1
102
RTVSPropertyOp19
 70
     1
102
RTVSPropertyOp20
 70
     1
102
RTVSPropertyOp21
 70
     1
102
RTVSPropertyOp22
 70
     1
102
RTVSPropertyOp23
 70
     1
102
RTVSPropertyOp24
 70
     1
102
RTVSPropertyOp25
 70
     1
102
RTVSPropertyOp26
 70
     1
102
RTVSPropertyOp27
 70
     1
102
RTVSPropertyOp28
 70
     1
102
RTVSPropertyOp29
 70
     1
102
RTVSPropertyOp30
 70
     1
102
RTVSPropertyOp31
 70
     1
102
RTVSPropertyOp32
 70
     1
  0
XRECORD
  5
3DCC
102
{ACAD_REACTORS
330
3DCB
102
}
330
3DCB
100
AcDbXrecord
280
     1
102
RTVSPropertyOp0
 70
     1
102
RTVSPropertyOp1
 70
     1
102
RTVSPropertyOp2
 70
     1
102
RTVSPropertyOp3
 70
     1
102
RTVSPropertyOp4
 70
     1
102
RTVSPropertyOp5
 70
     1
102
RTVSPropertyOp6
 70
     1
102
RTVSPropertyOp7
 70
     1
102
RTVSPropertyOp8
 70
     1
102
RTVSPropertyOp9
 70
     1
102
RTVSPropertyOp10
 70
     1
102
RTVSPropertyOp11
 70
     1
102
RTVSPropertyOp12
 70
     1
102
RTVSPropertyOp13
 70
     1
102
RTVSPropertyOp14
 70
     1
102
RTVSPropertyOp15
 70
     1
102
RTVSPropertyOp16
 70
     1
102
RTVSPropertyOp17
 70
     1
102
RTVSPropertyOp18
 70
     1
102
RTVSPropertyOp19
 70
     1
102
RTVSPropertyOp20
 70
     1
102
RTVSPropertyOp21
 70
     1
102
RTVSPropertyOp22
 70
     1
102
RTVSPropertyOp23
 70
     1
102
RTVSPropertyOp24
 70
     1
102
RTVSPropertyOp25
 70
     1
102
RTVSPropertyOp26
 70
     1
102
RTVSPropertyOp27
 70
     1
102
RTVSPropertyOp28
 70
     1
102
RTVSPropertyOp29
 70
     1
102
RTVSPropertyOp30
 70
     1
102
RTVSPropertyOp31
 70
     1
102
RTVSPropertyOp32
 70
     1
  0
XRECORD
  5
3DE4
102
{ACAD_REACTORS
330
3DE3
102
}
330
3DE3
100
AcDbXrecord
280
     1
102
RTVSPropertyOp0
 70
     1
102
RTVSPropertyOp1
 70
     1
102
RTVSPropertyOp2
 70
     1
102
RTVSPropertyOp3
 70
     1
102
RTVSPropertyOp4
 70
     1
102
RTVSPropertyOp5
 70
     1
102
RTVSPropertyOp6
 70
     1
102
RTVSPropertyOp7
 70
     1
102
RTVSPropertyOp8
 70
     1
102
RTVSPropertyOp9
 70
     1
102
RTVSPropertyOp10
 70
     1
102
RTVSPropertyOp11
 70
     1
102
RTVSPropertyOp12
 70
     1
102
RTVSPropertyOp13
 70
     1
102
RTVSPropertyOp14
 70
     1
102
RTVSPropertyOp15
 70
     1
102
RTVSPropertyOp16
 70
     1
102
RTVSPropertyOp17
 70
     1
102
RTVSPropertyOp18
 70
     1
102
RTVSPropertyOp19
 70
     1
102
RTVSPropertyOp20
 70
     1
102
RTVSPropertyOp21
 70
     1
102
RTVSPropertyOp22
 70
     1
102
RTVSPropertyOp23
 70
     1
102
RTVSPropertyOp24
 70
     1
102
RTVSPropertyOp25
 70
     1
102
RTVSPropertyOp26
 70
     1
102
RTVSPropertyOp27
 70
     1
102
RTVSPropertyOp28
 70
     1
102
RTVSPropertyOp29
 70
     1
102
RTVSPropertyOp30
 70
     1
102
RTVSPropertyOp31
 70
     1
102
RTVSPropertyOp32
 70
     1
  0
ENDSEC
  0
EOF
